  0
SECTION
  2
HEADER
  9
$ACADVER
  1
AC1015
  9
$ACADMAINTVER
 70
     6
  9
$DWGCODEPAGE
  3
ANSI_1252
  9
$INSBASE
 10
0.0
 20
0.0
 30
0.0
  9
$EXTMIN
 10
0.0
 20
0.0
 30
0.0
  9
$EXTMAX
 10
296.9999999999999
 20
210.0
 30
0.0
  9
$LIMMIN
 10
0.0
 20
0.0
  9
$LIMMAX
 10
12.0
 20
9.0
  9
$ORTHOMODE
 70
     0
  9
$REGENMODE
 70
     1
  9
$FILLMODE
 70
     1
  9
$QTEXTMODE
 70
     0
  9
$MIRRTEXT
 70
     1
  9
$LTSCALE
 40
1.0
  9
$ATTMODE
 70
     1
  9
$TEXTSIZE
 40
0.2
  9
$TRACEWID
 40
0.05
  9
$TEXTSTYLE
  7
Standard
  9
$CLAYER
  8
0
  9
$CELTYPE
  6
ByLayer
  9
$CECOLOR
 62
   256
  9
$CELTSCALE
 40
1.0
  9
$DISPSILH
 70
     0
  9
$DIMSCALE
 40
1.0
  9
$DIMASZ
 40
0.18
  9
$DIMEXO
 40
0.0625
  9
$DIMDLI
 40
0.38
  9
$DIMRND
 40
0.0
  9
$DIMDLE
 40
0.0
  9
$DIMEXE
 40
0.18
  9
$DIMTP
 40
0.0
  9
$DIMTM
 40
0.0
  9
$DIMTXT
 40
0.18
  9
$DIMCEN
 40
0.09
  9
$DIMTSZ
 40
0.0
  9
$DIMTOL
 70
     0
  9
$DIMLIM
 70
     0
  9
$DIMTIH
 70
     1
  9
$DIMTOH
 70
     1
  9
$DIMSE1
 70
     0
  9
$DIMSE2
 70
     0
  9
$DIMTAD
 70
     0
  9
$DIMZIN
 70
     0
  9
$DIMBLK
  1

  9
$DIMASO
 70
     1
  9
$DIMSHO
 70
     1
  9
$DIMPOST
  1

  9
$DIMAPOST
  1

  9
$DIMALT
 70
     0
  9
$DIMALTD
 70
     2
  9
$DIMALTF
 40
25.4
  9
$DIMLFAC
 40
1.0
  9
$DIMTOFL
 70
     0
  9
$DIMTVP
 40
0.0
  9
$DIMTIX
 70
     0
  9
$DIMSOXD
 70
     0
  9
$DIMSAH
 70
     0
  9
$DIMBLK1
  1

  9
$DIMBLK2
  1

  9
$DIMSTYLE
  2
Standard
  9
$DIMCLRD
 70
     0
  9
$DIMCLRE
 70
     0
  9
$DIMCLRT
 70
     0
  9
$DIMTFAC
 40
1.0
  9
$DIMGAP
 40
0.09
  9
$DIMJUST
 70
     0
  9
$DIMSD1
 70
     0
  9
$DIMSD2
 70
     0
  9
$DIMTOLJ
 70
     1
  9
$DIMTZIN
 70
     0
  9
$DIMALTZ
 70
     0
  9
$DIMALTTZ
 70
     0
  9
$DIMUPT
 70
     0
  9
$DIMDEC
 70
     4
  9
$DIMTDEC
 70
     4
  9
$DIMALTU
 70
     2
  9
$DIMALTTD
 70
     2
  9
$DIMTXSTY
  7
Standard
  9
$DIMAUNIT
 70
     0
  9
$DIMADEC
 70
     0
  9
$DIMALTRND
 40
0.0
  9
$DIMAZIN
 70
     0
  9
$DIMDSEP
 70
    46
  9
$DIMATFIT
 70
     3
  9
$DIMFRAC
 70
     0
  9
$DIMLDRBLK
  1

  9
$DIMLUNIT
 70
     2
  9
$DIMLWD
 70
    -2
  9
$DIMLWE
 70
    -2
  9
$DIMTMOVE
 70
     0
  9
$LUNITS
 70
     2
  9
$LUPREC
 70
     4
  9
$SKETCHINC
 40
0.1
  9
$FILLETRAD
 40
0.5
  9
$AUNITS
 70
     0
  9
$AUPREC
 70
     0
  9
$MENU
  1
.
  9
$ELEVATION
 40
0.0
  9
$PELEVATION
 40
0.0
  9
$THICKNESS
 40
0.0
  9
$LIMCHECK
 70
     0
  9
$CHAMFERA
 40
0.5
  9
$CHAMFERB
 40
0.5
  9
$CHAMFERC
 40
1.0
  9
$CHAMFERD
 40
0.0
  9
$SKPOLY
 70
     0
  9
$TDCREATE
 40
2456997.616612199
  9
$TDUCREATE
 40
2456997.574945532
  9
$TDUPDATE
 40
2456997.616612558
  9
$TDUUPDATE
 40
2456997.574945891
  9
$TDINDWG
 40
0.0000000116
  9
$TDUSRTIMER
 40
0.0000000116
  9
$USRTIMER
 70
     1
  9
$ANGBASE
 50
0.0
  9
$ANGDIR
 70
     0
  9
$PDMODE
 70
     0
  9
$PDSIZE
 40
0.0
  9
$PLINEWID
 40
0.0
  9
$SPLFRAME
 70
     0
  9
$SPLINETYPE
 70
     6
  9
$SPLINESEGS
 70
     8
  9
$HANDSEED
  5
7AA
  9
$SURFTAB1
 70
     6
  9
$SURFTAB2
 70
     6
  9
$SURFTYPE
 70
     6
  9
$SURFU
 70
     6
  9
$SURFV
 70
     6
  9
$UCSBASE
  2

  9
$UCSNAME
  2

  9
$UCSORG
 10
0.0
 20
0.0
 30
0.0
  9
$UCSXDIR
 10
1.0
 20
0.0
 30
0.0
  9
$UCSYDIR
 10
0.0
 20
1.0
 30
0.0
  9
$UCSORTHOREF
  2

  9
$UCSORTHOVIEW
 70
     0
  9
$UCSORGTOP
 10
0.0
 20
0.0
 30
0.0
  9
$UCSORGBOTTOM
 10
0.0
 20
0.0
 30
0.0
  9
$UCSORGLEFT
 10
0.0
 20
0.0
 30
0.0
  9
$UCSORGRIGHT
 10
0.0
 20
0.0
 30
0.0
  9
$UCSORGFRONT
 10
0.0
 20
0.0
 30
0.0
  9
$UCSORGBACK
 10
0.0
 20
0.0
 30
0.0
  9
$PUCSBASE
  2

  9
$PUCSNAME
  2

  9
$PUCSORG
 10
0.0
 20
0.0
 30
0.0
  9
$PUCSXDIR
 10
1.0
 20
0.0
 30
0.0
  9
$PUCSYDIR
 10
0.0
 20
1.0
 30
0.0
  9
$PUCSORTHOREF
  2

  9
$PUCSORTHOVIEW
 70
     0
  9
$PUCSORGTOP
 10
0.0
 20
0.0
 30
0.0
  9
$PUCSORGBOTTOM
 10
0.0
 20
0.0
 30
0.0
  9
$PUCSORGLEFT
 10
0.0
 20
0.0
 30
0.0
  9
$PUCSORGRIGHT
 10
0.0
 20
0.0
 30
0.0
  9
$PUCSORGFRONT
 10
0.0
 20
0.0
 30
0.0
  9
$PUCSORGBACK
 10
0.0
 20
0.0
 30
0.0
  9
$USERI1
 70
     0
  9
$USERI2
 70
     0
  9
$USERI3
 70
     0
  9
$USERI4
 70
     0
  9
$USERI5
 70
     0
  9
$USERR1
 40
18.1
  9
$USERR2
 40
0.0
  9
$USERR3
 40
0.0
  9
$USERR4
 40
0.0
  9
$USERR5
 40
0.0
  9
$WORLDVIEW
 70
     1
  9
$SHADEDGE
 70
     3
  9
$SHADEDIF
 70
    70
  9
$TILEMODE
 70
     1
  9
$MAXACTVP
 70
    64
  9
$PINSBASE
 10
0.0
 20
0.0
 30
0.0
  9
$PLIMCHECK
 70
     0
  9
$PEXTMIN
 10
1.00000000000000E+20
 20
1.00000000000000E+20
 30
1.00000000000000E+20
  9
$PEXTMAX
 10
-1.00000000000000E+20
 20
-1.00000000000000E+20
 30
-1.00000000000000E+20
  9
$PLIMMIN
 10
0.0
 20
0.0
  9
$PLIMMAX
 10
12.0
 20
9.0
  9
$UNITMODE
 70
     0
  9
$VISRETAIN
 70
     1
  9
$PLINEGEN
 70
     0
  9
$PSLTSCALE
 70
     1
  9
$TREEDEPTH
 70
  3020
  9
$CMLSTYLE
  2
Standard
  9
$CMLJUST
 70
     0
  9
$CMLSCALE
 40
1.0
  9
$PROXYGRAPHICS
 70
     1
  9
$MEASUREMENT
 70
     1
  9
$CELWEIGHT
370
    -1
  9
$ENDCAPS
280
     0
  9
$JOINSTYLE
280
     0
  9
$LWDISPLAY
290
     0
  9
$INSUNITS
 70
     4
  9
$HYPERLINKBASE
  1

  9
$STYLESHEET
  1

  9
$XEDIT
290
     1
  9
$CEPSNTYPE
380
     0
  9
$PSTYLEMODE
290
     1
  9
$FINGERPRINTGUID
  2
{0A598214-5216-454F-95CF-5728B74DC24D}
  9
$VERSIONGUID
  2
{FAEB1C32-E019-11D5-929B-00C0DF256EC4}
  9
$EXTNAMES
290
     1
  9
$PSVPSCALE
 40
0.0
  9
$OLESTARTUP
290
     0
  0
ENDSEC
  0
SECTION
  2
CLASSES
  0
CLASS
  1
ACDBDICTIONARYWDFLT
  2
AcDbDictionaryWithDefault
  3
ObjectDBX Classes
 90
        0
280
     0
281
     0
  0
CLASS
  1
VISUALSTYLE
  2
AcDbVisualStyle
  3
ObjectDBX Classes
 90
     4095
280
     0
281
     0
  0
CLASS
  1
MATERIAL
  2
AcDbMaterial
  3
ObjectDBX Classes
 90
     1153
280
     0
281
     0
  0
CLASS
  1
DICTIONARYVAR
  2
AcDbDictionaryVar
  3
ObjectDBX Classes
 90
        0
280
     0
281
     0
  0
CLASS
  1
ACDBPLACEHOLDER
  2
AcDbPlaceHolder
  3
ObjectDBX Classes
 90
        0
280
     0
281
     0
  0
CLASS
  1
LAYOUT
  2
AcDbLayout
  3
ObjectDBX Classes
 90
        0
280
     0
281
     0
  0
ENDSEC
  0
SECTION
  2
TABLES
  0
TABLE
  2
VPORT
  5
8
330
0
100
AcDbSymbolTable
 70
     1
  0
VPORT
  5
29
330
8
100
AcDbSymbolTableRecord
100
AcDbViewportTableRecord
  2
*Active
 70
     0
 10
0.0
 20
0.0
 11
1.0
 21
1.0
 12
148.4999999999999
 22
105.0
 13
0.0
 23
0.0
 14
0.5
 24
0.5
 15
0.5
 25
0.5
 16
0.0
 26
0.0
 36
1.0
 17
0.0
 27
0.0
 37
0.0
 40
231.0
 41
1.60267857142857
 42
50.0
 43
0.0
 44
0.0
 50
0.0
 51
0.0
 71
     0
 72
   100
 73
     1
 74
     3
 75
     0
 76
     0
 77
     0
 78
     0
281
     0
 65
     1
110
0.0
120
0.0
130
0.0
111
1.0
121
0.0
131
0.0
112
0.0
122
1.0
132
0.0
 79
     0
146
0.0
  0
ENDTAB
  0
TABLE
  2
LTYPE
  5
5
330
0
100
AcDbSymbolTable
 70
    10
  0
LTYPE
  5
14
330
5
100
AcDbSymbolTableRecord
100
AcDbLinetypeTableRecord
  2
ByBlock
 70
     0
  3

 72
    65
 73
     0
 40
0.0
  0
LTYPE
  5
15
330
5
100
AcDbSymbolTableRecord
100
AcDbLinetypeTableRecord
  2
ByLayer
 70
     0
  3

 72
    65
 73
     0
 40
0.0
  0
LTYPE
  5
16
330
5
100
AcDbSymbolTableRecord
100
AcDbLinetypeTableRecord
  2
Continuous
 70
     0
  3
Solid line
 72
    65
 73
     0
 40
0.0
  0
LTYPE
  5
3F
330
5
100
AcDbSymbolTableRecord
100
AcDbLinetypeTableRecord
  2
DASHED
 70
     0
  3
Dashed
 72
    65
 73
     2
 40
15.0
 49
7.0
 74
     0
 49
-8.0
 74
     0
  0
LTYPE
  5
40
330
5
100
AcDbSymbolTableRecord
100
AcDbLinetypeTableRecord
  2
DOTTED
 70
     0
  3
Dotted
 72
    65
 73
     2
 40
1.0
 49
0.0
 74
     0
 49
-1.0
 74
     0
  0
LTYPE
  5
41
330
5
100
AcDbSymbolTableRecord
100
AcDbLinetypeTableRecord
  2
DOT_CENTER
 70
     0
  3
Dot_Center
 72
    65
 73
     4
 40
14.0
 49
12.0
 74
     0
 49
-1.0
 74
     0
 49
0.0
 74
     0
 49
-1.0
 74
     0
  0
LTYPE
  5
42
330
5
100
AcDbSymbolTableRecord
100
AcDbLinetypeTableRecord
  2
LONG_DASHED
 70
     0
  3
Long_Dashed
 72
    65
 73
     2
 40
15.0
 49
10.0
 74
     0
 49
-5.0
 74
     0
  0
LTYPE
  5
43
330
5
100
AcDbSymbolTableRecord
100
AcDbLinetypeTableRecord
  2
DASH_CENTER
 70
     0
  3
Dash_Center
 72
    65
 73
     4
 40
14.0
 49
11.0
 74
     0
 49
-1.0
 74
     0
 49
1.0
 74
     0
 49
-1.0
 74
     0
  0
LTYPE
  5
44
330
5
100
AcDbSymbolTableRecord
100
AcDbLinetypeTableRecord
  2
PHANTOM
 70
     0
  3
Phantom
 72
    65
 73
     6
 40
13.0
 49
10.0
 74
     0
 49
-1.0
 74
     0
 49
0.0
 74
     0
 49
-1.0
 74
     0
 49
0.0
 74
     0
 49
-1.0
 74
     0
  0
LTYPE
  5
45
330
5
100
AcDbSymbolTableRecord
100
AcDbLinetypeTableRecord
  2
CENTER_DASH_DASH
 70
     0
  3
Center_Dash_Dash
 72
    65
 73
     6
 40
14.0
 49
9.0
 74
     0
 49
-1.0
 74
     0
 49
1.0
 74
     0
 49
-1.0
 74
     0
 49
1.0
 74
     0
 49
-1.0
 74
     0
  0
LTYPE
  5
46
330
5
100
AcDbSymbolTableRecord
100
AcDbLinetypeTableRecord
  2
CHAIN
 70
     0
  3
CHAIN
 72
    65
 73
     4
 40
4.0
 49
1.0
 74
     0
 49
-1.0
 74
     0
 49
1.0
 74
     0
 49
-1.0
 74
     0
  0
LTYPE
  5
47
330
5
100
AcDbSymbolTableRecord
100
AcDbLinetypeTableRecord
  2
DASHED_SPACE
 70
     0
  3
DASHED_SPACE
 72
    65
 73
     2
 40
2.0
 49
1.0
 74
     0
 49
-1.0
 74
     0
  0
ENDTAB
  0
TABLE
  2
LAYER
  5
2
330
0
100
AcDbSymbolTable
 70
     7
  0
LAYER
  5
10
330
2
100
AcDbSymbolTableRecord
100
AcDbLayerTableRecord
  2
0
 70
     0
 62
     7
  6
Continuous
370
    -3
390
F
  0
LAYER
  5
48
330
2
100
AcDbSymbolTableRecord
100
AcDbLayerTableRecord
  2
1
 70
     0
 62
     7
  6
Continuous
370
    -3
390
F
  0
LAYER
  5
49
330
2
100
AcDbSymbolTableRecord
100
AcDbLayerTableRecord
  2
Bemaßungen_TC_020513_DIN_
 70
     0
 62
     7
  6
Continuous
370
    -3
390
F
  0
LAYER
  5
4A
330
2
100
AcDbSymbolTableRecord
100
AcDbLayerTableRecord
  2
Mittellinie_TC_020513_DIN_
 70
     0
 62
     7
  6
Continuous
370
    -3
390
F
  0
LAYER
  5
4B
330
2
100
AcDbSymbolTableRecord
100
AcDbLayerTableRecord
  2
Mittelpunktmarkierung_TC_020513_DIN_
 70
     0
 62
     7
  6
Continuous
370
    -3
390
F
  0
LAYER
  5
4C
330
2
100
AcDbSymbolTableRecord
100
AcDbLayerTableRecord
  2
Sichtbare_Kanten_TC_020513_DIN_
 70
     0
 62
     7
  6
Continuous
370
    -3
390
F
  0
LAYER
  5
4D
330
2
100
AcDbSymbolTableRecord
100
AcDbLayerTableRecord
  2
Stich_1-Linien_TC_020513_DIN_
 70
     0
 62
     7
  6
Continuous
370
    -3
390
F
  0
ENDTAB
  0
TABLE
  2
STYLE
  5
3
330
0
100
AcDbSymbolTable
 70
     4
  0
STYLE
  5
11
330
3
100
AcDbSymbolTableRecord
100
AcDbTextStyleTableRecord
  2
Standard
 70
     0
 40
0.0
 41
1.0
 50
0.0
 71
     0
 42
0.2
  3
txt
  4

  0
STYLE
  5
96
330
3
100
AcDbSymbolTableRecord
100
AcDbTextStyleTableRecord
  2
CONVERTER_11
 70
     0
 40
0.0
 41
0.9
 50
0.0
 71
     0
 42
0.2
  3
txt.shx
  4

  0
STYLE
  5
99
330
3
100
AcDbSymbolTableRecord
100
AcDbTextStyleTableRecord
  2
CONVERTER_12
 70
     0
 40
0.0
 41
1.035
 50
0.0
 71
     0
 42
0.2
  3
txt.shx
  4

  0
STYLE
  5
718
330
3
100
AcDbSymbolTableRecord
100
AcDbTextStyleTableRecord
  2
CONVERTER_13
 70
     0
 40
0.0
 41
0.95
 50
0.0
 71
     0
 42
0.2
  3
simplex.shx
  4

  0
ENDTAB
  0
TABLE
  2
VIEW
  5
6
330
0
100
AcDbSymbolTable
 70
     0
  0
ENDTAB
  0
TABLE
  2
UCS
  5
7
330
0
100
AcDbSymbolTable
 70
     0
  0
ENDTAB
  0
TABLE
  2
APPID
  5
9
330
0
100
AcDbSymbolTable
 70
     1
  0
APPID
  5
12
330
9
100
AcDbSymbolTableRecord
100
AcDbRegAppTableRecord
  2
ACAD
 70
     0
  0
ENDTAB
  0
TABLE
  2
DIMSTYLE
  5
A
330
0
100
AcDbSymbolTable
 70
    10
100
AcDbDimStyleTable
  0
DIMSTYLE
105
27
330
A
100
AcDbSymbolTableRecord
100
AcDbDimStyleTableRecord
  2
Standard
 70
     0
178
     0
340
11
  0
DIMSTYLE
105
723
102
{ACAD_REACTORS
330
724
102
}
330
A
100
AcDbSymbolTableRecord
100
AcDbDimStyleTableRecord
  2
ME10_DIM_10
 70
     0
 41
3.0
 42
0.5
 44
1.0
 73
     0
 74
     0
 77
     1
 78
     8
140
3.0
147
2.0
172
     1
173
     1
174
     1
175
     1
176
     2
177
     2
271
     2
178
     4
271
     2
340
718
  0
DIMSTYLE
105
72E
102
{ACAD_REACTORS
330
72F
102
}
330
A
100
AcDbSymbolTableRecord
100
AcDbDimStyleTableRecord
  2
ME10_DIM_11
 70
     0
 41
3.0
 42
0.5
 44
1.0
 73
     0
 74
     0
 77
     1
 78
     8
140
3.0
147
2.0
172
     1
173
     1
174
     1
175
     1
176
     2
177
     2
271
     2
178
     4
271
     2
340
718
  0
DIMSTYLE
105
73B
102
{ACAD_REACTORS
330
73C
102
}
330
A
100
AcDbSymbolTableRecord
100
AcDbDimStyleTableRecord
  2
ME10_DIM_12
 70
     0
 41
3.0
 42
0.5
 44
1.0
 73
     0
 74
     0
 77
     1
 78
     8
140
3.0
147
2.0
172
     1
173
     1
174
     1
175
     1
176
     2
177
     2
271
     2
178
     4
271
     2
340
718
  0
DIMSTYLE
105
746
102
{ACAD_REACTORS
330
747
102
}
330
A
100
AcDbSymbolTableRecord
100
AcDbDimStyleTableRecord
  2
ME10_DIM_13
 70
     0
 41
3.0
 42
0.5
 44
1.0
 73
     0
 74
     0
 77
     1
 78
     8
140
3.0
147
2.0
172
     1
173
     1
174
     1
175
     1
176
     2
177
     2
271
     2
178
     4
271
     2
340
718
  0
DIMSTYLE
105
751
102
{ACAD_REACTORS
330
752
102
}
330
A
100
AcDbSymbolTableRecord
100
AcDbDimStyleTableRecord
  2
ME10_DIM_14
 70
     0
 41
3.0
 42
0.5
 44
1.0
 73
     0
 74
     0
 77
     1
 78
     8
140
3.0
147
2.0
172
     1
173
     1
174
     1
175
     1
176
     2
177
     2
271
     2
178
     4
271
     2
340
718
  0
DIMSTYLE
105
75C
102
{ACAD_REACTORS
330
75D
102
}
330
A
100
AcDbSymbolTableRecord
100
AcDbDimStyleTableRecord
  2
ME10_DIM_15
 70
     0
 41
3.0
 42
0.5
 44
1.0
 73
     0
 74
     0
 77
     1
 78
     8
140
3.0
147
2.0
172
     1
173
     1
174
     1
175
     1
176
     2
177
     2
271
     2
178
     4
271
     2
340
718
  0
DIMSTYLE
105
767
102
{ACAD_REACTORS
330
768
102
}
330
A
100
AcDbSymbolTableRecord
100
AcDbDimStyleTableRecord
  2
ME10_DIM_16
 70
     0
 41
3.0
 42
0.5
 44
1.0
 73
     0
 74
     0
 77
     1
 78
     8
140
3.0
147
2.0
172
     1
173
     1
174
     1
175
     1
176
     2
177
     2
271
     2
178
     4
271
     2
340
718
  0
DIMSTYLE
105
772
102
{ACAD_REACTORS
330
773
102
}
330
A
100
AcDbSymbolTableRecord
100
AcDbDimStyleTableRecord
  2
ME10_DIM_17
 70
     0
 41
3.0
 42
0.5
 44
1.0
 73
     0
 74
     0
 77
     1
 78
     8
140
3.0
147
2.0
172
     1
173
     1
174
     1
175
     1
176
     2
177
     2
271
     2
178
     4
271
     2
340
718
  0
DIMSTYLE
105
77D
102
{ACAD_REACTORS
330
77E
102
}
330
A
100
AcDbSymbolTableRecord
100
AcDbDimStyleTableRecord
  2
ME10_DIM_18
 70
     0
 41
3.0
 42
0.5
 44
1.0
 73
     0
 74
     0
 77
     1
 78
     8
140
3.0
147
2.0
172
     1
173
     1
174
     1
175
     1
176
     2
177
     2
271
     2
178
     4
271
     2
340
718
  0
ENDTAB
  0
TABLE
  2
BLOCK_RECORD
  5
1
330
0
100
AcDbSymbolTable
 70
    11
  0
BLOCK_RECORD
  5
1F
330
1
100
AcDbSymbolTableRecord
100
AcDbBlockTableRecord
  2
*Model_Space
340
22
  0
BLOCK_RECORD
  5
1B
330
1
100
AcDbSymbolTableRecord
100
AcDbBlockTableRecord
  2
*Paper_Space
340
1E
  0
BLOCK_RECORD
  5
23
330
1
100
AcDbSymbolTableRecord
100
AcDbBlockTableRecord
  2
*Paper_Space0
340
26
  0
BLOCK_RECORD
  5
4E
330
1
100
AcDbSymbolTableRecord
100
AcDbBlockTableRecord
  2
_formato_A4
340
0
102
{BLKREFS
331
51
102
}
  0
BLOCK_RECORD
  5
71A
330
1
100
AcDbSymbolTableRecord
100
AcDbBlockTableRecord
  2
*D2
340
0
  0
BLOCK_RECORD
  5
725
330
1
100
AcDbSymbolTableRecord
100
AcDbBlockTableRecord
  2
*D3
340
0
  0
BLOCK_RECORD
  5
730
330
1
100
AcDbSymbolTableRecord
100
AcDbBlockTableRecord
  2
*D4
340
0
  0
BLOCK_RECORD
  5
73D
330
1
100
AcDbSymbolTableRecord
100
AcDbBlockTableRecord
  2
*D5
340
0
  0
BLOCK_RECORD
  5
748
330
1
100
AcDbSymbolTableRecord
100
AcDbBlockTableRecord
  2
*D6
340
0
  0
BLOCK_RECORD
  5
753
330
1
100
AcDbSymbolTableRecord
100
AcDbBlockTableRecord
  2
*D7
340
0
  0
BLOCK_RECORD
  5
75E
330
1
100
AcDbSymbolTableRecord
100
AcDbBlockTableRecord
  2
*D8
340
0
  0
BLOCK_RECORD
  5
769
330
1
100
AcDbSymbolTableRecord
100
AcDbBlockTableRecord
  2
*D9
340
0
  0
BLOCK_RECORD
  5
774
330
1
100
AcDbSymbolTableRecord
100
AcDbBlockTableRecord
  2
*D10
340
0
  0
ENDTAB
  0
ENDSEC
  0
SECTION
  2
BLOCKS
  0
BLOCK
  5
20
330
1F
100
AcDbEntity
  8
0
100
AcDbBlockBegin
  2
*Model_Space
 70
     0
 10
0.0
 20
0.0
 30
0.0
  3
*Model_Space
  1

  0
ENDBLK
  5
21
330
1F
100
AcDbEntity
  8
0
100
AcDbBlockEnd
  0
BLOCK
  5
1C
330
1B
100
AcDbEntity
 67
     1
  8
0
100
AcDbBlockBegin
  2
*Paper_Space
 70
     0
 10
0.0
 20
0.0
 30
0.0
  3
*Paper_Space
  1

  0
ENDBLK
  5
1D
330
1B
100
AcDbEntity
 67
     1
  8
0
100
AcDbBlockEnd
  0
BLOCK
  5
24
330
23
100
AcDbEntity
  8
0
100
AcDbBlockBegin
  2
*Paper_Space0
 70
     0
 10
0.0
 20
0.0
 30
0.0
  3
*Paper_Space0
  1

  0
ENDBLK
  5
25
330
23
100
AcDbEntity
  8
0
100
AcDbBlockEnd
  0
BLOCK
  5
4F
330
4E
100
AcDbEntity
  8
0
100
AcDbBlockBegin
  2
_formato_A4
 70
     0
 10
296.9999999999999
 20
0.0
 30
0.0
  3
_formato_A4
  1

  0
LINE
  5
52
330
4E
100
AcDbEntity
  8
1
  6
Continuous
 62
     7
100
AcDbLine
 10
108.0
 20
9.99999999999986
 30
0.0
 11
138.0
 21
9.99999999999986
 31
0.0
  0
LINE
  5
53
330
4E
100
AcDbEntity
  8
1
  6
Continuous
 62
     7
100
AcDbLine
 10
108.0
 20
14.9999999999999
 30
0.0
 11
138.0
 21
14.9999999999999
 31
0.0
  0
LINE
  5
54
330
4E
100
AcDbEntity
  8
1
  6
Continuous
 62
     7
100
AcDbLine
 10
247.9999999999999
 20
20.0
 30
0.0
 11
247.9999999999999
 21
5.0
 31
0.0
  0
LINE
  5
55
330
4E
100
AcDbEntity
  8
1
  6
Continuous
 62
     7
100
AcDbLine
 10
265.352601377485
 20
20.0
 30
0.0
 11
265.352601377485
 21
5.0
 31
0.0
  0
LINE
  5
56
330
4E
100
AcDbEntity
  8
1
  6
Continuous
 62
     7
100
AcDbLine
 10
138.0
 20
20.0
 30
0.0
 11
138.0
 21
5.0
 31
0.0
  0
LINE
  5
57
330
4E
100
AcDbEntity
  8
1
  6
Continuous
 62
     7
100
AcDbLine
 10
148.5
 20
210.0
 30
0.0
 11
148.5
 21
195.0
 31
0.0
  0
LINE
  5
58
330
4E
100
AcDbEntity
  8
1
  6
Continuous
 62
     7
100
AcDbLine
 10
0.0
 20
0.0
 30
0.0
 11
296.9999999999999
 21
0.0
 31
0.0
  0
LINE
  5
59
330
4E
100
AcDbEntity
  8
1
  6
Continuous
 62
     7
100
AcDbLine
 10
0.0
 20
210.0
 30
0.0
 11
0.0
 21
0.0
 31
0.0
  0
LINE
  5
5A
330
4E
100
AcDbEntity
  8
1
  6
Continuous
 62
     7
100
AcDbLine
 10
296.9999999999999
 20
210.0
 30
0.0
 11
0.0
 21
210.0
 31
0.0
  0
LINE
  5
5B
330
4E
100
AcDbEntity
  8
1
  6
Continuous
 62
     7
100
AcDbLine
 10
296.9999999999999
 20
0.0
 30
0.0
 11
296.9999999999999
 21
210.0
 31
0.0
  0
LINE
  5
5C
330
4E
100
AcDbEntity
  8
1
  6
Continuous
 62
     7
100
AcDbLine
 10
4.99999999999989
 20
5.0
 30
0.0
 11
108.0
 21
5.0
 31
0.0
  0
LINE
  5
5D
330
4E
100
AcDbEntity
  8
1
  6
Continuous
 62
     7
100
AcDbLine
 10
291.9999999999999
 20
5.0
 30
0.0
 11
291.9999999999999
 21
189.0
 31
0.0
  0
LINE
  5
5E
330
4E
100
AcDbEntity
  8
1
  6
Continuous
 62
     7
100
AcDbLine
 10
291.9999999999999
 20
189.0
 30
0.0
 11
4.99999999999989
 21
189.0
 31
0.0
  0
LINE
  5
5F
102
{ACAD_REACTORS
330
A0
102
}
330
4E
100
AcDbEntity
  8
1
  6
Continuous
 62
     7
100
AcDbLine
 10
281.009634022076
 20
10.0774998398326
 30
0.0
 11
281.009634022076
 21
14.9225001601674
 31
0.0
  0
LINE
  5
60
102
{ACAD_REACTORS
330
9D
102
}
330
4E
100
AcDbEntity
  8
1
  6
Continuous
 62
     7
100
AcDbLine
 10
279.6763006887431
 20
12.5
 30
0.0
 11
279.6763006887431
 21
14.2320508075688
 31
0.0
  0
LINE
  5
61
102
{ACAD_REACTORS
330
9D
102
}
330
4E
100
AcDbEntity
  8
1
  6
Continuous
 62
     7
100
AcDbLine
 10
279.6763006887431
 20
14.2320508075688
 30
0.0
 11
278.82063825604
 21
12.75
 31
0.0
  0
LINE
  5
62
102
{ACAD_REACTORS
330
9D
102
}
330
4E
100
AcDbEntity
  8
1
  6
Continuous
 62
     7
100
AcDbLine
 10
278.531963121445
 20
12.75
 30
0.0
 11
277.6763006887431
 21
14.2320508075688
 31
0.0
  0
LINE
  5
63
102
{ACAD_REACTORS
330
9D
102
}
330
4E
100
AcDbEntity
  8
1
  6
Continuous
 62
     7
100
AcDbLine
 10
277.6763006887431
 20
14.2320508075688
 30
0.0
 11
277.6763006887431
 21
12.5
 31
0.0
  0
LINE
  5
64
330
4E
100
AcDbEntity
  8
1
  6
Continuous
 62
     7
100
AcDbLine
 10
270.2598654136011
 20
12.6443642643413
 30
0.0
 11
278.6763006887431
 21
17.5
 31
0.0
  0
LINE
  5
65
330
4E
100
AcDbEntity
  8
1
  6
Continuous
 62
     7
100
AcDbLine
 10
278.6763006887431
 20
17.5
 30
0.0
 11
287.092735963884
 21
12.6443642643413
 31
0.0
  0
LINE
  5
66
330
4E
100
AcDbEntity
  8
1
  6
Continuous
 62
     7
100
AcDbLine
 10
287.092735963884
 20
12.3556357356586
 30
0.0
 11
278.6763006887431
 21
7.5
 31
0.0
  0
LINE
  5
67
330
4E
100
AcDbEntity
  8
1
  6
Continuous
 62
     7
100
AcDbLine
 10
278.6763006887431
 20
7.5
 30
0.0
 11
270.2598654136011
 21
12.3556357356586
 31
0.0
  0
LINE
  5
68
102
{ACAD_REACTORS
330
9D
102
}
330
4E
100
AcDbEntity
  8
1
  6
Continuous
 62
     7
100
AcDbLine
 10
277.009634022076
 20
12.5
 30
0.0
 11
277.009634022076
 21
15.7312173120346
 31
0.0
  0
LINE
  5
69
102
{ACAD_REACTORS
330
9D
102
}
330
4E
100
AcDbEntity
  8
1
  6
Continuous
 62
     7
100
AcDbLine
 10
277.5040677056999
 20
15.8637004182723
 30
0.0
 11
278.6763006887431
 21
13.8333333333333
 31
0.0
  0
LINE
  5
6A
102
{ACAD_REACTORS
330
9D
102
}
330
4E
100
AcDbEntity
  8
1
  6
Continuous
 62
     7
100
AcDbLine
 10
277.009634022076
 20
12.5
 30
0.0
 11
277.009634022076
 21
10.8475850726329
 31
0.0
  0
LINE
  5
6B
102
{ACAD_REACTORS
330
9D
102
}
330
4E
100
AcDbEntity
  8
1
  6
Continuous
 62
     7
100
AcDbLine
 10
277.6763006887431
 20
10.8475850726329
 30
0.0
 11
277.6763006887431
 21
12.5
 31
0.0
  0
LINE
  5
6C
102
{ACAD_REACTORS
330
9D
102
}
330
4E
100
AcDbEntity
  8
1
  6
Continuous
 62
     7
100
AcDbLine
 10
279.6763006887431
 20
12.5
 30
0.0
 11
279.6763006887431
 21
9.3082690706018
 31
0.0
  0
LINE
  5
6D
102
{ACAD_REACTORS
330
9D
102
}
330
4E
100
AcDbEntity
  8
1
  6
Continuous
 62
     7
100
AcDbLine
 10
280.3429673554089
 20
9.3082690706018
 30
0.0
 11
280.3429673554089
 21
15.7312173120346
 31
0.0
  0
LINE
  5
6E
102
{ACAD_REACTORS
330
9D
102
}
330
4E
100
AcDbEntity
  8
1
  6
Continuous
 62
     7
100
AcDbLine
 10
279.848533671786
 20
15.8637004182723
 30
0.0
 11
278.6763006887431
 21
13.8333333333333
 31
0.0
  0
LINE
  5
6F
102
{ACAD_REACTORS
330
9E
102
}
330
4E
100
AcDbEntity
  8
1
  6
Continuous
 62
     7
100
AcDbLine
 10
275.6763006887431
 20
10.2700211480326
 30
0.0
 11
275.6763006887431
 21
14.9225001601674
 31
0.0
  0
LINE
  5
70
102
{ACAD_REACTORS
330
9E
102
}
330
4E
100
AcDbEntity
  8
1
  6
Continuous
 62
     7
100
AcDbLine
 10
276.3429673554089
 20
14.9225001601674
 30
0.0
 11
276.3429673554089
 21
10.2700211480327
 31
0.0
  0
LINE
  5
71
102
{ACAD_REACTORS
330
9E
102
}
330
4E
100
AcDbEntity
  8
1
  6
Continuous
 62
     7
100
AcDbLine
 10
276.3429673554089
 20
10.2700211480327
 30
0.0
 11
278.5095415065729
 21
9.0200745223616
 31
0.0
  0
LINE
  5
72
102
{ACAD_REACTORS
330
9E
102
}
330
4E
100
AcDbEntity
  8
1
  6
Continuous
 62
     7
100
AcDbLine
 10
278.176393204246
 20
8.44261746499581
 30
0.0
 11
276.0098190530829
 21
9.69256409066691
 31
0.0
  0
LINE
  5
73
102
{ACAD_REACTORS
330
9F
102
}
330
4E
100
AcDbEntity
  8
1
  6
Continuous
 62
     7
100
AcDbLine
 10
275.009634022076
 20
14.1532693909367
 30
0.0
 11
275.009634022076
 21
11.0392519172633
 31
0.0
  0
LINE
  5
74
102
{ACAD_REACTORS
330
9F
102
}
330
4E
100
AcDbEntity
  8
1
  6
Continuous
 62
     7
100
AcDbLine
 10
275.009634022076
 20
11.0392519172633
 30
0.0
 11
275.009634022076
 21
10.8467306090632
 31
0.0
  0
LINE
  5
75
102
{ACAD_REACTORS
330
9F
102
}
330
4E
100
AcDbEntity
  8
1
  6
Continuous
 62
     7
100
AcDbLine
 10
274.3429673554089
 20
10.8467306090632
 30
0.0
 11
274.3429673554089
 21
14.1532693909367
 31
0.0
  0
LINE
  5
76
102
{ACAD_REACTORS
330
A0
102
}
330
4E
100
AcDbEntity
  8
1
  6
Continuous
 62
     7
100
AcDbLine
 10
281.5095415065729
 20
15.2112286888503
 30
0.0
 11
282.842874839906
 21
14.4419979196194
 31
0.0
  0
LINE
  5
77
102
{ACAD_REACTORS
330
A0
102
}
330
4E
100
AcDbEntity
  8
1
  6
Continuous
 62
     7
100
AcDbLine
 10
282.50972653758
 20
13.8645408622538
 30
0.0
 11
281.6763006887431
 21
14.345363467352
 31
0.0
  0
LINE
  5
78
102
{ACAD_REACTORS
330
A0
102
}
330
4E
100
AcDbEntity
  8
1
  6
Continuous
 62
     7
100
AcDbLine
 10
281.6763006887431
 20
14.345363467352
 30
0.0
 11
281.6763006887431
 21
12.8333333333333
 31
0.0
  0
LINE
  5
79
102
{ACAD_REACTORS
330
A0
102
}
330
4E
100
AcDbEntity
  8
1
  6
Continuous
 62
     7
100
AcDbLine
 10
281.6763006887431
 20
12.8333333333333
 30
0.0
 11
282.6763006887431
 21
12.8333333333333
 31
0.0
  0
LINE
  5
7A
102
{ACAD_REACTORS
330
A0
102
}
330
4E
100
AcDbEntity
  8
1
  6
Continuous
 62
     7
100
AcDbLine
 10
282.6763006887431
 20
12.1666666666666
 30
0.0
 11
281.6763006887431
 21
12.1666666666666
 31
0.0
  0
LINE
  5
7B
102
{ACAD_REACTORS
330
A0
102
}
330
4E
100
AcDbEntity
  8
1
  6
Continuous
 62
     7
100
AcDbLine
 10
281.6763006887431
 20
12.1666666666666
 30
0.0
 11
281.6763006887431
 21
10.6546365326479
 31
0.0
  0
LINE
  5
7C
102
{ACAD_REACTORS
330
A0
102
}
330
4E
100
AcDbEntity
  8
1
  6
Continuous
 62
     7
100
AcDbLine
 10
281.6763006887431
 20
10.6546365326479
 30
0.0
 11
282.50972653758
 21
11.1354591377462
 31
0.0
  0
LINE
  5
7D
102
{ACAD_REACTORS
330
A0
102
}
330
4E
100
AcDbEntity
  8
1
  6
Continuous
 62
     7
100
AcDbLine
 10
282.842874839906
 20
10.5580020803803
 30
0.0
 11
281.5095415065729
 21
9.78877131114973
 31
0.0
  0
LINE
  5
7E
330
4E
100
AcDbEntity
  8
1
  6
Continuous
 62
     7
100
AcDbLine
 10
108.0
 20
25.0
 30
0.0
 11
291.9999999999999
 21
25.0
 31
0.0
  0
LINE
  5
7F
330
4E
100
AcDbEntity
  8
1
  6
Continuous
 62
     7
100
AcDbLine
 10
115.0
 20
20.0
 30
0.0
 11
115.0
 21
25.0
 31
0.0
  0
LINE
  5
80
330
4E
100
AcDbEntity
  8
1
  6
Continuous
 62
     7
100
AcDbLine
 10
133.0
 20
20.0
 30
0.0
 11
133.0
 21
25.0
 31
0.0
  0
LINE
  5
81
330
4E
100
AcDbEntity
  8
1
  6
Continuous
 62
     7
100
AcDbLine
 10
4.99999999999989
 20
189.0
 30
0.0
 11
4.99999999999989
 21
5.0
 31
0.0
  0
LINE
  5
82
330
4E
100
AcDbEntity
  8
1
  6
Continuous
 62
     7
100
AcDbLine
 10
108.0
 20
20.0
 30
0.0
 11
291.9999999999999
 21
20.0
 31
0.0
  0
LINE
  5
83
330
4E
100
AcDbEntity
  8
1
  6
Continuous
 62
     7
100
AcDbLine
 10
108.0
 20
25.0
 30
0.0
 11
108.0
 21
5.0
 31
0.0
  0
LINE
  5
84
330
4E
100
AcDbEntity
  8
1
  6
Continuous
 62
     7
100
AcDbLine
 10
108.0
 20
5.0
 30
0.0
 11
291.9999999999999
 21
5.0
 31
0.0
  0
ARC
  5
85
102
{ACAD_REACTORS
330
9D
102
}
330
4E
100
AcDbEntity
  8
1
  6
Continuous
 62
     7
100
AcDbCircle
 10
278.6763006887431
 20
12.8333333333333
 30
0.0
 40
0.1666666666672217
100
AcDbArc
 50
209.9999999998767
 51
329.9999999999279
  0
ARC
  5
86
102
{ACAD_REACTORS
330
9E
102
}
330
4E
100
AcDbEntity
  8
1
  6
Continuous
 62
     7
100
AcDbCircle
 10
276.3429673554089
 20
10.2700211480327
 30
0.0
 40
0.666666666665833
100
AcDbArc
 50
180.0000000000087
 51
240.018360631179
  0
ARC
  5
87
330
4E
100
AcDbEntity
  8
1
  6
Continuous
 62
     7
100
AcDbCircle
 10
270.343152489183
 20
12.5
 30
0.0
 40
0.1666666666666998
100
AcDbArc
 50
119.9816393689606
 51
240.0183606310565
  0
ARC
  5
88
330
4E
100
AcDbEntity
  8
1
  6
Continuous
 62
     7
100
AcDbCircle
 10
287.009448888303
 20
12.5
 30
0.0
 40
0.1666666666663598
100
AcDbArc
 50
299.9816393686896
 51
60.01836063129329
  0
ARC
  5
89
102
{ACAD_REACTORS
330
A0
102
}
330
4E
100
AcDbEntity
  8
1
  6
Continuous
 62
     7
100
AcDbCircle
 10
281.3429673554089
 20
14.9225001601674
 30
0.0
 40
0.3333333333337433
100
AcDbArc
 50
60.01836063103966
 51
180.0
  0
ARC
  5
8A
102
{ACAD_REACTORS
330
A0
102
}
330
4E
100
AcDbEntity
  8
1
  6
Continuous
 62
     7
100
AcDbCircle
 10
281.3429673554089
 20
10.0774998398326
 30
0.0
 40
0.3333333333329165
100
AcDbArc
 50
180.0
 51
299.9816393689629
  0
ARC
  5
8B
102
{ACAD_REACTORS
330
9D
102
}
330
4E
100
AcDbEntity
  8
1
  6
Continuous
 62
     7
100
AcDbCircle
 10
277.274600234551
 20
15.7312173120346
 30
0.0
 40
0.264966212476014
100
AcDbArc
 50
29.99999999992336
 51
180.0
  0
ARC
  5
8C
102
{ACAD_REACTORS
330
9D
102
}
330
4E
100
AcDbEntity
  8
1
  6
Continuous
 62
     7
100
AcDbCircle
 10
277.3429673554089
 20
10.8475850726329
 30
0.0
 40
0.3333333333329165
100
AcDbArc
 50
180.0
 51
0.0
  0
ARC
  5
8D
102
{ACAD_REACTORS
330
9D
102
}
330
4E
100
AcDbEntity
  8
1
  6
Continuous
 62
     7
100
AcDbCircle
 10
280.009634022076
 20
9.3082690706018
 30
0.0
 40
0.3333333333329165
100
AcDbArc
 50
180.0
 51
0.0
  0
ARC
  5
8E
102
{ACAD_REACTORS
330
9D
102
}
330
4E
100
AcDbEntity
  8
1
  6
Continuous
 62
     7
100
AcDbCircle
 10
280.0780011429339
 20
15.7312173120346
 30
0.0
 40
0.2649662124750307
100
AcDbArc
 50
0.0
 51
149.9999999999599
  0
ARC
  5
8F
102
{ACAD_REACTORS
330
9E
102
}
330
4E
100
AcDbEntity
  8
1
  6
Continuous
 62
     7
100
AcDbCircle
 10
276.009634022076
 20
14.9225001601674
 30
0.0
 40
0.3333333333329165
100
AcDbArc
 50
0.0
 51
180.0
  0
ARC
  5
90
102
{ACAD_REACTORS
330
9E
102
}
330
4E
100
AcDbEntity
  8
1
  6
Continuous
 62
     7
100
AcDbCircle
 10
278.3429673554089
 20
8.7313459936787
 30
0.0
 40
0.3333333333332227
100
AcDbArc
 50
240.0183606311911
 51
60.01836063103995
  0
ARC
  5
91
102
{ACAD_REACTORS
330
9F
102
}
330
4E
100
AcDbEntity
  8
1
  6
Continuous
 62
     7
100
AcDbCircle
 10
274.6763006887431
 20
14.1532693909367
 30
0.0
 40
0.3333333333329165
100
AcDbArc
 50
0.0
 51
180.0
  0
ARC
  5
92
102
{ACAD_REACTORS
330
9F
102
}
330
4E
100
AcDbEntity
  8
1
  6
Continuous
 62
     7
100
AcDbCircle
 10
274.6763006887431
 20
10.8467306090632
 30
0.0
 40
0.333333333334167
100
AcDbArc
 50
180.0
 51
0.0
  0
ARC
  5
93
102
{ACAD_REACTORS
330
A0
102
}
330
4E
100
AcDbEntity
  8
1
  6
Continuous
 62
     7
100
AcDbCircle
 10
282.6763006887431
 20
14.1532693909367
 30
0.0
 40
0.3333333333333172
100
AcDbArc
 50
240.0183606311666
 51
60.01836063117491
  0
ARC
  5
94
102
{ACAD_REACTORS
330
A0
102
}
330
4E
100
AcDbEntity
  8
1
  6
Continuous
 62
     7
100
AcDbCircle
 10
282.6763006887431
 20
12.5
 30
0.0
 40
0.3333333333333997
100
AcDbArc
 50
270.0
 51
90.0
  0
ARC
  5
95
102
{ACAD_REACTORS
330
A0
102
}
330
4E
100
AcDbEntity
  8
1
  6
Continuous
 62
     7
100
AcDbCircle
 10
282.6763006887431
 20
10.8467306090632
 30
0.0
 40
0.3333333333332335
100
AcDbArc
 50
299.9816393688079
 51
119.9816393688249
  0
MTEXT
  5
97
330
4E
100
AcDbEntity
  8
1
 62
     7
100
AcDbMText
 10
109.0
 20
7.49999999999987
 30
0.0
 40
3.0
 41
0.0
 71
     4
 72
     1
  1
Sign.
  7
CONVERTER_11
 73
     1
 44
0.75727272727273
  0
MTEXT
  5
98
330
4E
100
AcDbEntity
  8
1
 62
     7
100
AcDbMText
 10
109.0
 20
12.4999999999999
 30
0.0
 40
3.0
 41
0.0
 71
     4
 72
     1
  1
Date
  7
CONVERTER_11
 73
     1
 44
0.75727272727273
  0
MTEXT
  5
9A
330
4E
100
AcDbEntity
  8
1
 62
     7
100
AcDbMText
 10
123.0
 20
17.4999999999999
 30
0.0
 40
2.5
 41
0.0
 71
     5
 72
     1
  1
dimensions in mm
  7
CONVERTER_12
 73
     1
 44
0.75727272727273
  0
MTEXT
  5
9B
330
4E
100
AcDbEntity
  8
1
 62
     7
100
AcDbMText
 10
151.5
 20
194.0
 30
0.0
 40
4.0
 41
0.0
 71
     5
 72
     1
  1
Diritti riservati      All rights reserved
  7
CONVERTER_11
 73
     1
 44
0.75727272727273
  0
MTEXT
  5
9C
330
4E
100
AcDbEntity
  8
1
 62
     7
100
AcDbMText
 10
256.6763006887431
 20
16.260639420756
 30
0.0
 40
3.0
 41
0.0
 71
     5
 72
     1
  1
Scale
  7
CONVERTER_11
 73
     1
 44
0.75727272727273
  0
HATCH
  5
9D
330
4E
100
AcDbEntity
  8
1
  6
Continuous
 62
     7
100
AcDbHatch
 10
0.0
 20
0.0
 30
0.0
210
0.0
220
0.0
230
1.0
  2
SOLID
 70
     1
 71
     1
 91
        1
 92
        1
 93
       16
 72
     2
 10
277.274600234551
 20
15.7312173120346
 40
0.264966212476014
 50
29.99999999992336
 51
180.0
 73
     1
 72
     1
 10
277.009634022076
 20
15.7312173120346
 11
277.009634022076
 21
12.5
 72
     1
 10
277.009634022076
 20
12.5
 11
277.009634022076
 21
10.8475850726329
 72
     2
 10
277.3429673554089
 20
10.8475850726329
 40
0.3333333333329165
 50
180.0
 51
360.0
 73
     1
 72
     1
 10
277.6763006887431
 20
10.8475850726329
 11
277.6763006887431
 21
12.5
 72
     1
 10
277.6763006887431
 20
12.5
 11
277.6763006887431
 21
14.2320508075688
 72
     1
 10
277.6763006887431
 20
14.2320508075688
 11
278.531963121445
 21
12.75
 72
     2
 10
278.6763006887431
 20
12.8333333333333
 40
0.1666666666672217
 50
209.9999999998767
 51
329.9999999999279
 73
     1
 72
     1
 10
278.82063825604
 20
12.75
 11
279.6763006887431
 21
14.2320508075688
 72
     1
 10
279.6763006887431
 20
14.2320508075688
 11
279.6763006887431
 21
12.5
 72
     1
 10
279.6763006887431
 20
12.5
 11
279.6763006887431
 21
9.3082690706018
 72
     2
 10
280.009634022076
 20
9.3082690706018
 40
0.3333333333329165
 50
180.0
 51
360.0
 73
     1
 72
     1
 10
280.3429673554089
 20
9.3082690706018
 11
280.3429673554089
 21
15.7312173120346
 72
     2
 10
280.0780011429339
 20
15.7312173120346
 40
0.2649662124750307
 50
0.0
 51
149.9999999999599
 73
     1
 72
     1
 10
279.848533671786
 20
15.8637004182723
 11
278.6763006887431
 21
13.8333333333333
 72
     1
 10
278.6763006887431
 20
13.8333333333333
 11
277.5040677056999
 21
15.8637004182723
 97
       16
330
6E
330
8E
330
6D
330
8D
330
6C
330
60
330
61
330
85
330
62
330
63
330
6B
330
8C
330
6A
330
68
330
8B
330
69
 75
     0
 76
     1
 98
        1
 10
0.0
 20
0.0
  0
HATCH
  5
9E
330
4E
100
AcDbEntity
  8
1
  6
Continuous
 62
     7
100
AcDbHatch
 10
0.0
 20
0.0
 30
0.0
210
0.0
220
0.0
230
1.0
  2
SOLID
 70
     1
 71
     1
 91
        1
 92
        1
 93
        7
 72
     1
 10
276.3429673554089
 20
14.9225001601674
 11
276.3429673554089
 21
10.2700211480327
 72
     1
 10
276.3429673554089
 20
10.2700211480327
 11
278.5095415065729
 21
9.0200745223616
 72
     2
 10
278.3429673554089
 20
8.731345993678698
 40
0.3333333333332227
 50
299.98163936896
 51
479.9816393688089
 73
     0
 72
     1
 10
278.176393204246
 20
8.44261746499581
 11
276.0098190530829
 21
9.69256409066691
 72
     2
 10
276.3429673554089
 20
10.2700211480327
 40
0.666666666665833
 50
119.981639368821
 51
179.9999999999913
 73
     0
 72
     1
 10
275.6763006887431
 20
10.2700211480326
 11
275.6763006887431
 21
14.9225001601674
 72
     2
 10
276.009634022076
 20
14.9225001601674
 40
0.3333333333329165
 50
180.0
 51
360.0
 73
     0
 97
        7
330
70
330
71
330
90
330
72
330
86
330
6F
330
8F
 75
     0
 76
     1
 98
        1
 10
0.0
 20
0.0
  0
HATCH
  5
9F
330
4E
100
AcDbEntity
  8
1
  6
Continuous
 62
     7
100
AcDbHatch
 10
0.0
 20
0.0
 30
0.0
210
0.0
220
0.0
230
1.0
  2
SOLID
 70
     1
 71
     1
 91
        1
 92
        1
 93
        5
 72
     1
 10
275.009634022076
 20
14.1532693909367
 11
275.009634022076
 21
11.0392519172633
 72
     1
 10
275.009634022076
 20
11.0392519172633
 11
275.009634022076
 21
10.8467306090632
 72
     2
 10
274.6763006887431
 20
10.8467306090632
 40
0.333333333334167
 50
0.0
 51
180.0
 73
     0
 72
     1
 10
274.3429673554089
 20
10.8467306090632
 11
274.3429673554089
 21
14.1532693909367
 72
     2
 10
274.6763006887431
 20
14.1532693909367
 40
0.3333333333329165
 50
180.0
 51
360.0
 73
     0
 97
        5
330
73
330
74
330
92
330
75
330
91
 75
     0
 76
     1
 98
        1
 10
0.0
 20
0.0
  0
HATCH
  5
A0
330
4E
100
AcDbEntity
  8
1
  6
Continuous
 62
     7
100
AcDbHatch
 10
0.0
 20
0.0
 30
0.0
210
0.0
220
0.0
230
1.0
  2
SOLID
 70
     1
 71
     1
 91
        1
 92
        1
 93
       14
 72
     1
 10
282.50972653758
 20
13.8645408622538
 11
281.6763006887431
 21
14.345363467352
 72
     1
 10
281.6763006887431
 20
14.345363467352
 11
281.6763006887431
 21
12.8333333333333
 72
     1
 10
281.6763006887431
 20
12.8333333333333
 11
282.6763006887431
 21
12.8333333333333
 72
     2
 10
282.6763006887431
 20
12.5
 40
0.3333333333333997
 50
270.0
 51
450.0
 73
     0
 72
     1
 10
282.6763006887431
 20
12.1666666666666
 11
281.6763006887431
 21
12.1666666666666
 72
     1
 10
281.6763006887431
 20
12.1666666666666
 11
281.6763006887431
 21
10.6546365326479
 72
     1
 10
281.6763006887431
 20
10.6546365326479
 11
282.50972653758
 21
11.1354591377462
 72
     2
 10
282.6763006887431
 20
10.8467306090632
 40
0.3333333333332335
 50
240.0183606311751
 51
420.0183606311921
 73
     0
 72
     1
 10
282.842874839906
 20
10.5580020803803
 11
281.5095415065729
 21
9.78877131114973
 72
     2
 10
281.3429673554089
 20
10.0774998398326
 40
0.3333333333329165
 50
60.01836063103707
 51
180.0
 73
     0
 72
     1
 10
281.009634022076
 20
10.0774998398326
 11
281.009634022076
 21
14.9225001601674
 72
     2
 10
281.3429673554089
 20
14.9225001601674
 40
0.3333333333337433
 50
180.0
 51
299.9816393689604
 73
     0
 72
     1
 10
281.5095415065729
 20
15.2112286888503
 11
282.842874839906
 21
14.4419979196194
 72
     2
 10
282.6763006887431
 20
14.1532693909367
 40
0.3333333333333172
 50
299.9816393688251
 51
479.9816393688335
 73
     0
 97
       14
330
76
330
89
330
5F
330
8A
330
7D
330
95
330
7C
330
7B
330
7A
330
94
330
79
330
78
330
77
330
93
 75
     0
 76
     1
 98
        1
 10
0.0
 20
0.0
  0
ENDBLK
  5
50
330
4E
100
AcDbEntity
  8
0
100
AcDbBlockEnd
  0
BLOCK
  5
721
330
71A
100
AcDbEntity
  8
0
100
AcDbBlockBegin
  2
*D2
 70
     1
 10
0.0
 20
0.0
 30
0.0
  3
*D2
  1

  0
LINE
  5
71B
330
71A
100
AcDbEntity
  8
1
  6
Continuous
 62
     2
100
AcDbLine
 10
169.037891753402
 20
131.2357816983624
 30
0.0
 11
169.037891753402
 21
74.23578169836259
 31
0.0
  0
LINE
  5
71C
330
71A
100
AcDbEntity
  8
1
  6
Continuous
 62
     2
100
AcDbLine
 10
124.2010086225313
 20
131.2357816983624
 30
0.0
 11
170.037891753402
 21
131.2357816983624
 31
0.0
  0
LINE
  5
71D
330
71A
100
AcDbEntity
  8
1
  6
Continuous
 62
     2
100
AcDbLine
 10
136.1510086225313
 20
74.23578169836259
 30
0.0
 11
170.037891753402
 21
74.23578169836259
 31
0.0
  0
SOLID
  5
71E
330
71A
100
AcDbEntity
  8
1
 62
     2
100
AcDbTrace
 10
169.4328492461642
 20
128.2357816983624
 30
0.0
 11
168.6429342606398
 21
128.2357816983624
 31
0.0
 12
169.037891753402
 22
131.2357816983624
 32
0.0
 13
169.037891753402
 23
131.2357816983624
 33
0.0
  0
SOLID
  5
71F
330
71A
100
AcDbEntity
  8
1
 62
     2
100
AcDbTrace
 10
168.6429342606398
 20
77.23578169836259
 30
0.0
 11
169.4328492461642
 21
77.23578169836259
 31
0.0
 12
169.037891753402
 22
74.23578169836259
 32
0.0
 13
169.037891753402
 23
74.23578169836259
 33
0.0
  0
MTEXT
  5
720
330
71A
100
AcDbEntity
  8
1
 62
     4
100
AcDbMText
 10
167.037891753402
 20
100.4857816983625
 30
0.0
 40
3.0
 41
0.0
 71
     7
 72
     1
  1
57
  7
CONVERTER_13
 11
0.0
 21
1.0
 31
0.0
 73
     1
 44
0.60024009603842
  0
ENDBLK
  5
722
330
71A
100
AcDbEntity
  8
0
100
AcDbBlockEnd
  0
BLOCK
  5
72C
330
725
100
AcDbEntity
  8
0
100
AcDbBlockBegin
  2
*D3
 70
     1
 10
0.0
 20
0.0
 30
0.0
  3
*D3
  1

  0
LINE
  5
726
330
725
100
AcDbEntity
  8
1
  6
Continuous
 62
     2
100
AcDbLine
 10
275.771763396502
 20
131.2357816983624
 30
0.0
 11
275.771763396502
 21
74.23578169836259
 31
0.0
  0
LINE
  5
727
330
725
100
AcDbEntity
  8
1
  6
Continuous
 62
     2
100
AcDbLine
 10
243.2884600753493
 20
131.2357816983624
 30
0.0
 11
276.771763396502
 21
131.2357816983624
 31
0.0
  0
LINE
  5
728
330
725
100
AcDbEntity
  8
1
  6
Continuous
 62
     2
100
AcDbLine
 10
247.2384600753443
 20
74.23578169836259
 30
0.0
 11
276.771763396502
 21
74.23578169836259
 31
0.0
  0
SOLID
  5
729
330
725
100
AcDbEntity
  8
1
 62
     2
100
AcDbTrace
 10
276.1667208892642
 20
128.2357816983624
 30
0.0
 11
275.3768059037399
 21
128.2357816983624
 31
0.0
 12
275.771763396502
 22
131.2357816983624
 32
0.0
 13
275.771763396502
 23
131.2357816983624
 33
0.0
  0
SOLID
  5
72A
330
725
100
AcDbEntity
  8
1
 62
     2
100
AcDbTrace
 10
275.3768059037399
 20
77.23578169836259
 30
0.0
 11
276.1667208892642
 21
77.23578169836259
 31
0.0
 12
275.771763396502
 22
74.23578169836259
 32
0.0
 13
275.771763396502
 23
74.23578169836259
 33
0.0
  0
MTEXT
  5
72B
330
725
100
AcDbEntity
  8
1
 62
     4
100
AcDbMText
 10
273.771763396502
 20
100.4857816983625
 30
0.0
 40
3.0
 41
0.0
 71
     7
 72
     1
  1
57
  7
CONVERTER_13
 11
0.0
 21
1.0
 31
0.0
 73
     1
 44
0.60024009603842
  0
ENDBLK
  5
72D
330
725
100
AcDbEntity
  8
0
100
AcDbBlockEnd
  0
BLOCK
  5
739
330
730
100
AcDbEntity
  8
0
100
AcDbBlockBegin
  2
*D4
 70
     1
 10
0.0
 20
0.0
 30
0.0
  3
*D4
  1

  0
LINE
  5
731
330
730
100
AcDbEntity
  8
1
  6
Continuous
 62
     2
100
AcDbLine
 10
264.290795273516
 20
68.23578169836259
 30
0.0
 11
264.290795273516
 21
74.23578169836259
 31
0.0
  0
LINE
  5
732
330
730
100
AcDbEntity
  8
1
  6
Continuous
 62
     2
100
AcDbLine
 10
264.290795273516
 20
74.23578169836259
 30
0.0
 11
264.290795273516
 21
78.23578169836259
 31
0.0
  0
LINE
  5
733
330
730
100
AcDbEntity
  8
1
  6
Continuous
 62
     2
100
AcDbLine
 10
264.290795273516
 20
78.23578169836259
 30
0.0
 11
264.290795273516
 21
84.23578169836259
 31
0.0
  0
LINE
  5
734
330
730
100
AcDbEntity
  8
1
  6
Continuous
 62
     2
100
AcDbLine
 10
247.2384600753443
 20
74.23578169836259
 30
0.0
 11
265.290795273516
 21
74.23578169836259
 31
0.0
  0
LINE
  5
735
330
730
100
AcDbEntity
  8
1
  6
Continuous
 62
     2
100
AcDbLine
 10
247.2384600753443
 20
78.23578169836259
 30
0.0
 11
265.290795273516
 21
78.23578169836259
 31
0.0
  0
SOLID
  5
736
330
730
100
AcDbEntity
  8
1
 62
     2
100
AcDbTrace
 10
264.6857527662781
 20
71.23578169836259
 30
0.0
 11
263.8958377807538
 21
71.23578169836259
 31
0.0
 12
264.290795273516
 22
74.23578169836259
 32
0.0
 13
264.290795273516
 23
74.23578169836259
 33
0.0
  0
SOLID
  5
737
330
730
100
AcDbEntity
  8
1
 62
     2
100
AcDbTrace
 10
263.8958377807538
 20
81.23578169836259
 30
0.0
 11
264.6857527662781
 21
81.23578169836259
 31
0.0
 12
264.290795273516
 22
78.23578169836259
 32
0.0
 13
264.290795273516
 23
78.23578169836259
 33
0.0
  0
MTEXT
  5
738
330
730
100
AcDbEntity
  8
1
 62
     4
100
AcDbMText
 10
262.290795273516
 20
75.33578169836258
 30
0.0
 40
3.0
 41
0.0
 71
     7
 72
     1
  1
4
  7
CONVERTER_13
 11
0.0
 21
1.0
 31
0.0
 73
     1
 44
0.60024009603842
  0
ENDBLK
  5
73A
330
730
100
AcDbEntity
  8
0
100
AcDbBlockEnd
  0
BLOCK
  5
744
330
73D
100
AcDbEntity
  8
0
100
AcDbBlockBegin
  2
*D5
 70
     1
 10
0.0
 20
0.0
 30
0.0
  3
*D5
  1

  0
LINE
  5
73E
330
73D
100
AcDbEntity
  8
1
  6
Continuous
 62
     2
100
AcDbLine
 10
148.3349585942473
 20
167.861957437299
 30
0.0
 11
29.46705865081481
 21
167.861957437299
 31
0.0
  0
LINE
  5
73F
330
73D
100
AcDbEntity
  8
1
  6
Continuous
 62
     2
100
AcDbLine
 10
148.3349585942473
 20
113.7357816983624
 30
0.0
 11
148.3349585942473
 21
168.861957437299
 31
0.0
  0
LINE
  5
740
330
73D
100
AcDbEntity
  8
1
  6
Continuous
 62
     2
100
AcDbLine
 10
29.46705865081481
 20
113.7357816983624
 30
0.0
 11
29.46705865081481
 21
168.861957437299
 31
0.0
  0
SOLID
  5
741
330
73D
100
AcDbEntity
  8
1
 62
     2
100
AcDbTrace
 10
145.3349585942473
 20
167.4669999445368
 30
0.0
 11
145.3349585942473
 21
168.2569149300612
 31
0.0
 12
148.3349585942473
 22
167.861957437299
 32
0.0
 13
148.3349585942473
 23
167.861957437299
 33
0.0
  0
SOLID
  5
742
330
73D
100
AcDbEntity
  8
1
 62
     2
100
AcDbTrace
 10
32.46705865081481
 20
168.2569149300612
 30
0.0
 11
32.46705865081481
 21
167.4669999445368
 31
0.0
 12
29.46705865081481
 22
167.861957437299
 32
0.0
 13
29.46705865081481
 23
167.861957437299
 33
0.0
  0
MTEXT
  5
743
330
73D
100
AcDbEntity
  8
1
 62
     4
100
AcDbMText
 10
86.20100862253106
 20
169.861957437299
 30
0.0
 40
3.0
 41
0.0
 71
     7
 72
     1
  1
119
  7
CONVERTER_13
 11
0.9999999999970619
 21
2.424068405545306E-6
 31
0.0
 73
     1
 44
0.60024009603842
  0
ENDBLK
  5
745
330
73D
100
AcDbEntity
  8
0
100
AcDbBlockEnd
  0
BLOCK
  5
74F
330
748
100
AcDbEntity
  8
0
100
AcDbBlockBegin
  2
*D6
 70
     1
 10
0.0
 20
0.0
 30
0.0
  3
*D6
  1

  0
LINE
  5
749
330
748
100
AcDbEntity
  8
1
  6
Continuous
 62
     2
100
AcDbLine
 10
47.90100862253092
 20
56.7160461065415
 30
0.0
 11
129.9010086225313
 21
56.7160461065415
 31
0.0
  0
LINE
  5
74A
330
748
100
AcDbEntity
  8
1
  6
Continuous
 62
     2
100
AcDbLine
 10
47.90100862253092
 20
71.23578169836259
 30
0.0
 11
47.90100862253092
 21
55.7160461065415
 31
0.0
  0
LINE
  5
74B
330
748
100
AcDbEntity
  8
1
  6
Continuous
 62
     2
100
AcDbLine
 10
129.9010086225313
 20
71.23578169836259
 30
0.0
 11
129.9010086225313
 21
55.7160461065415
 31
0.0
  0
SOLID
  5
74C
330
748
100
AcDbEntity
  8
1
 62
     2
100
AcDbTrace
 10
50.90100862253092
 20
57.11100359930369
 30
0.0
 11
50.90100862253092
 21
56.32108861377931
 31
0.0
 12
47.90100862253092
 22
56.7160461065415
 32
0.0
 13
47.90100862253092
 23
56.7160461065415
 33
0.0
  0
SOLID
  5
74D
330
748
100
AcDbEntity
  8
1
 62
     2
100
AcDbTrace
 10
126.9010086225313
 20
56.32108861377931
 30
0.0
 11
126.9010086225313
 21
57.11100359930369
 31
0.0
 12
129.9010086225313
 22
56.7160461065415
 32
0.0
 13
129.9010086225313
 23
56.7160461065415
 33
0.0
  0
MTEXT
  5
74E
330
748
100
AcDbEntity
  8
1
 62
     4
100
AcDbMText
 10
86.50100862253112
 20
58.7160461065415
 30
0.0
 40
3.0
 41
0.0
 71
     7
 72
     1
  1
82
  7
CONVERTER_13
 11
0.9999999999970619
 21
2.424068405545306E-6
 31
0.0
 73
     1
 44
0.60024009603842
  0
ENDBLK
  5
750
330
748
100
AcDbEntity
  8
0
100
AcDbBlockEnd
  0
BLOCK
  5
75A
330
753
100
AcDbEntity
  8
0
100
AcDbBlockBegin
  2
*D7
 70
     1
 10
0.0
 20
0.0
 30
0.0
  3
*D7
  1

  0
LINE
  5
754
330
753
100
AcDbEntity
  8
1
  6
Continuous
 62
     2
100
AcDbLine
 10
42.15100862253092
 20
40.7
 30
0.0
 11
135.6510086225313
 21
40.7
 31
0.0
  0
LINE
  5
755
330
753
100
AcDbEntity
  8
1
  6
Continuous
 62
     2
100
AcDbLine
 10
42.15100862253092
 20
73.73578169836259
 30
0.0
 11
42.15100862253092
 21
39.7
 31
0.0
  0
LINE
  5
756
330
753
100
AcDbEntity
  8
1
  6
Continuous
 62
     2
100
AcDbLine
 10
135.6510086225313
 20
73.73578169836259
 30
0.0
 11
135.6510086225313
 21
39.7
 31
0.0
  0
SOLID
  5
757
330
753
100
AcDbEntity
  8
1
 62
     2
100
AcDbTrace
 10
45.15100862253092
 20
41.09495749276219
 30
0.0
 11
45.15100862253092
 21
40.30504250723781
 31
0.0
 12
42.15100862253092
 22
40.7
 32
0.0
 13
42.15100862253092
 23
40.7
 33
0.0
  0
SOLID
  5
758
330
753
100
AcDbEntity
  8
1
 62
     2
100
AcDbTrace
 10
132.6510086225313
 20
40.30504250723781
 30
0.0
 11
132.6510086225313
 21
41.09495749276219
 31
0.0
 12
135.6510086225313
 22
40.7
 32
0.0
 13
135.6510086225313
 23
40.7
 33
0.0
  0
MTEXT
  5
759
330
753
100
AcDbEntity
  8
1
 62
     4
100
AcDbMText
 10
84.77600862253112
 20
43.0
 30
0.0
 40
3.0
 41
0.0
 71
     7
 72
     1
  1
93,5
  7
CONVERTER_13
 11
0.9999999999970619
 21
2.424068405545306E-6
 31
0.0
 73
     1
 44
0.60024009603842
  0
ENDBLK
  5
75B
330
753
100
AcDbEntity
  8
0
100
AcDbBlockEnd
  0
BLOCK
  5
765
330
75E
100
AcDbEntity
  8
0
100
AcDbBlockBegin
  2
*D8
 70
     1
 10
0.0
 20
0.0
 30
0.0
  3
*D8
  1

  0
LINE
  5
75F
330
75E
100
AcDbEntity
  8
1
  6
Continuous
 62
     2
100
AcDbLine
 10
200.7384600753463
 20
56.7160461065415
 30
0.0
 11
240.4884600753483
 21
56.7160461065415
 31
0.0
  0
LINE
  5
760
330
75E
100
AcDbEntity
  8
1
  6
Continuous
 62
     2
100
AcDbLine
 10
200.7384600753463
 20
71.23578169836259
 30
0.0
 11
200.7384600753463
 21
55.7160461065415
 31
0.0
  0
LINE
  5
761
330
75E
100
AcDbEntity
  8
1
  6
Continuous
 62
     2
100
AcDbLine
 10
240.4884600753483
 20
71.23578169836259
 30
0.0
 11
240.4884600753483
 21
55.7160461065415
 31
0.0
  0
SOLID
  5
762
330
75E
100
AcDbEntity
  8
1
 62
     2
100
AcDbTrace
 10
203.7384600753463
 20
57.11100359930369
 30
0.0
 11
203.7384600753463
 21
56.32108861377932
 31
0.0
 12
200.7384600753463
 22
56.7160461065415
 32
0.0
 13
200.7384600753463
 23
56.7160461065415
 33
0.0
  0
SOLID
  5
763
330
75E
100
AcDbEntity
  8
1
 62
     2
100
AcDbTrace
 10
237.4884600753483
 20
56.32108861377932
 30
0.0
 11
237.4884600753483
 21
57.11100359930369
 31
0.0
 12
240.4884600753483
 22
56.7160461065415
 32
0.0
 13
240.4884600753483
 23
56.7160461065415
 33
0.0
  0
MTEXT
  5
764
330
75E
100
AcDbEntity
  8
1
 62
     4
100
AcDbMText
 10
215.1384600753473
 20
59.0160461065415
 30
0.0
 40
3.0
 41
0.0
 71
     7
 72
     1
  1
39,75
  7
CONVERTER_13
 11
0.9999999999970619
 21
2.424068405545306E-6
 31
0.0
 73
     1
 44
0.60024009603842
  0
ENDBLK
  5
766
330
75E
100
AcDbEntity
  8
0
100
AcDbBlockEnd
  0
BLOCK
  5
770
330
769
100
AcDbEntity
  8
0
100
AcDbBlockBegin
  2
*D9
 70
     1
 10
0.0
 20
0.0
 30
0.0
  3
*D9
  1

  0
LINE
  5
76A
330
769
100
AcDbEntity
  8
1
  6
Continuous
 62
     2
100
AcDbLine
 10
194.7384600753443
 20
40.7
 30
0.0
 11
246.7384600753443
 21
40.7
 31
0.0
  0
LINE
  5
76B
330
769
100
AcDbEntity
  8
1
  6
Continuous
 62
     2
100
AcDbLine
 10
194.7384600753443
 20
73.73578169836259
 30
0.0
 11
194.7384600753443
 21
39.7
 31
0.0
  0
LINE
  5
76C
330
769
100
AcDbEntity
  8
1
  6
Continuous
 62
     2
100
AcDbLine
 10
246.7384600753443
 20
73.73578169836259
 30
0.0
 11
246.7384600753443
 21
39.7
 31
0.0
  0
SOLID
  5
76D
330
769
100
AcDbEntity
  8
1
 62
     2
100
AcDbTrace
 10
197.7384600753443
 20
41.09495749276219
 30
0.0
 11
197.7384600753443
 21
40.30504250723781
 31
0.0
 12
194.7384600753443
 22
40.7
 32
0.0
 13
194.7384600753443
 23
40.7
 33
0.0
  0
SOLID
  5
76E
330
769
100
AcDbEntity
  8
1
 62
     2
100
AcDbTrace
 10
243.7384600753443
 20
40.30504250723781
 30
0.0
 11
243.7384600753443
 21
41.09495749276219
 31
0.0
 12
246.7384600753443
 22
40.7
 32
0.0
 13
246.7384600753443
 23
40.7
 33
0.0
  0
MTEXT
  5
76F
330
769
100
AcDbEntity
  8
1
 62
     4
100
AcDbMText
 10
218.4884600753443
 20
42.7
 30
0.0
 40
3.0
 41
0.0
 71
     7
 72
     1
  1
52
  7
CONVERTER_13
 11
0.9999999999970619
 21
2.424068405545306E-6
 31
0.0
 73
     1
 44
0.60024009603842
  0
ENDBLK
  5
771
330
769
100
AcDbEntity
  8
0
100
AcDbBlockEnd
  0
BLOCK
  5
77B
330
774
100
AcDbEntity
  8
0
100
AcDbBlockBegin
  2
*D10
 70
     1
 10
0.0
 20
0.0
 30
0.0
  3
*D10
  1

  0
LINE
  5
775
330
774
100
AcDbEntity
  8
1
  6
Continuous
 62
     2
100
AcDbLine
 10
155.423552430761
 20
79.07378169836258
 30
0.0
 11
155.423552430761
 21
102.5577816983624
 31
0.0
  0
LINE
  5
776
330
774
100
AcDbEntity
  8
1
  6
Continuous
 62
     2
100
AcDbLine
 10
136.2510086225313
 20
79.07378169836258
 30
0.0
 11
156.423552430761
 21
79.07378169836258
 31
0.0
  0
LINE
  5
777
330
774
100
AcDbEntity
  8
1
  6
Continuous
 62
     2
100
AcDbLine
 10
136.1510086225313
 20
102.5577816983624
 30
0.0
 11
156.423552430761
 21
102.5577816983624
 31
0.0
  0
SOLID
  5
778
330
774
100
AcDbEntity
  8
1
 62
     2
100
AcDbTrace
 10
155.0285949379988
 20
82.07378169836258
 30
0.0
 11
155.8185099235232
 21
82.07378169836258
 31
0.0
 12
155.423552430761
 22
79.07378169836258
 32
0.0
 13
155.423552430761
 23
79.07378169836258
 33
0.0
  0
SOLID
  5
779
330
774
100
AcDbEntity
  8
1
 62
     2
100
AcDbTrace
 10
155.8185099235232
 20
99.55778169836239
 30
0.0
 11
155.0285949379988
 21
99.55778169836239
 31
0.0
 12
155.423552430761
 22
102.5577816983624
 32
0.0
 13
155.423552430761
 23
102.5577816983624
 33
0.0
  0
MTEXT
  5
77A
330
774
100
AcDbEntity
  8
1
 62
     4
100
AcDbMText
 10
153.423552430761
 20
86.16578169836248
 30
0.0
 40
3.0
 41
0.0
 71
     7
 72
     1
  1
PG16
  7
CONVERTER_13
 11
0.0
 21
1.0
 31
0.0
 73
     1
 44
0.60024009603842
  0
ENDBLK
  5
77C
330
774
100
AcDbEntity
  8
0
100
AcDbBlockEnd
  0
ENDSEC
  0
SECTION
  2
ENTITIES
  0
INSERT
  5
51
330
1F
100
AcDbEntity
  8
1
100
AcDbBlockReference
  2
_formato_A4
 10
296.9999999999999
 20
0.0
 30
0.0
  0
POINT
  5
A1
330
1F
100
AcDbEntity
  8
Bemaßungen_TC_020513_DIN_
 62
     7
100
AcDbPoint
 10
135.6510086225313
 20
102.5577816983624
 30
0.0
  0
POINT
  5
A2
330
1F
100
AcDbEntity
  8
Bemaßungen_TC_020513_DIN_
 62
     7
100
AcDbPoint
 10
135.6510086225313
 20
79.07378169836258
 30
0.0
  0
POINT
  5
A3
330
1F
100
AcDbEntity
  8
Bemaßungen_TC_020513_DIN_
 62
     7
100
AcDbPoint
 10
29.46705865081481
 20
113.2357816983624
 30
0.0
  0
POINT
  5
A4
330
1F
100
AcDbEntity
  8
Bemaßungen_TC_020513_DIN_
 62
     7
100
AcDbPoint
 10
148.3349585942473
 20
113.2357816983624
 30
0.0
  0
POINT
  5
A5
330
1F
100
AcDbEntity
  8
Bemaßungen_TC_020513_DIN_
 62
     7
100
AcDbPoint
 10
246.7384600753443
 20
74.23578169836259
 30
0.0
  0
POINT
  5
A6
330
1F
100
AcDbEntity
  8
Bemaßungen_TC_020513_DIN_
 62
     7
100
AcDbPoint
 10
244.5384600753533
 20
149.2357816983624
 30
0.0
  0
POINT
  5
A7
330
1F
100
AcDbEntity
  8
Bemaßungen_TC_020513_DIN_
 62
     7
100
AcDbPoint
 10
246.7384600753443
 20
78.23578169836259
 30
0.0
  0
POINT
  5
A8
330
1F
100
AcDbEntity
  8
Bemaßungen_TC_020513_DIN_
 62
     7
100
AcDbPoint
 10
246.7384600753443
 20
74.23578169836259
 30
0.0
  0
POINT
  5
A9
330
1F
100
AcDbEntity
  8
Bemaßungen_TC_020513_DIN_
 62
     7
100
AcDbPoint
 10
200.7384600753463
 20
76.23578169836259
 30
0.0
  0
POINT
  5
AA
330
1F
100
AcDbEntity
  8
Bemaßungen_TC_020513_DIN_
 62
     7
100
AcDbPoint
 10
240.4884600753483
 20
76.23578169836259
 30
0.0
  0
POINT
  5
AB
330
1F
100
AcDbEntity
  8
Bemaßungen_TC_020513_DIN_
 62
     7
100
AcDbPoint
 10
194.7384600753443
 20
76.23578169836259
 30
0.0
  0
POINT
  5
AC
330
1F
100
AcDbEntity
  8
Bemaßungen_TC_020513_DIN_
 62
     7
100
AcDbPoint
 10
246.7384600753443
 20
76.23578169836259
 30
0.0
  0
POINT
  5
AD
330
1F
100
AcDbEntity
  8
Bemaßungen_TC_020513_DIN_
 62
     7
100
AcDbPoint
 10
129.9010086225313
 20
76.23578169836259
 30
0.0
  0
POINT
  5
AE
330
1F
100
AcDbEntity
  8
Bemaßungen_TC_020513_DIN_
 62
     7
100
AcDbPoint
 10
47.90100862253092
 20
76.23578169836259
 30
0.0
  0
POINT
  5
AF
330
1F
100
AcDbEntity
  8
Bemaßungen_TC_020513_DIN_
 62
     7
100
AcDbPoint
 10
42.15100862253092
 20
76.23578169836259
 30
0.0
  0
POINT
  5
B0
330
1F
100
AcDbEntity
  8
Bemaßungen_TC_020513_DIN_
 62
     7
100
AcDbPoint
 10
135.6510086225313
 20
76.23578169836259
 30
0.0
  0
POINT
  5
B1
330
1F
100
AcDbEntity
  8
Bemaßungen_TC_020513_DIN_
 62
     7
100
AcDbPoint
 10
135.6510086225313
 20
74.23578169836259
 30
0.0
  0
POINT
  5
B2
330
1F
100
AcDbEntity
  8
Bemaßungen_TC_020513_DIN_
 62
     7
100
AcDbPoint
 10
120.8010086225313
 20
131.2357816983624
 30
0.0
  0
LINE
  5
B3
330
1F
100
AcDbEntity
  8
Sichtbare_Kanten_TC_020513_DIN_
  6
Continuous
 62
     7
100
AcDbLine
 10
90.65100862253092
 20
97.67944830949841
 30
0.0
 11
90.65100862253092
 21
100.7921150872274
 31
0.0
  0
LINE
  5
B4
330
1F
100
AcDbEntity
  8
Sichtbare_Kanten_TC_020513_DIN_
  6
Continuous
 62
     7
100
AcDbLine
 10
92.0258975700234
 20
98.0395445469874
 30
0.0
 11
91.0258975700234
 21
97.4628778803214
 31
0.0
  0
LINE
  5
B5
330
1F
100
AcDbEntity
  8
Sichtbare_Kanten_TC_020513_DIN_
  6
Continuous
 62
     7
100
AcDbLine
 10
91.15100862253104
 20
98.11220469839739
 30
0.0
 11
91.7761196750385
 21
98.47268540534341
 31
0.0
  0
LINE
  5
B6
330
1F
100
AcDbEntity
  8
Sichtbare_Kanten_TC_020513_DIN_
  6
Continuous
 62
     7
100
AcDbLine
 10
91.15100862253104
 20
98.98578169836341
 30
0.0
 11
91.15100862253104
 21
98.11220469839739
 31
0.0
  0
LINE
  5
B7
330
1F
100
AcDbEntity
  8
Sichtbare_Kanten_TC_020513_DIN_
  6
Continuous
 62
     7
100
AcDbLine
 10
91.90100862253092
 20
98.98578169836341
 30
0.0
 11
91.15100862253104
 21
98.98578169836341
 31
0.0
  0
LINE
  5
B8
330
1F
100
AcDbEntity
  8
Sichtbare_Kanten_TC_020513_DIN_
  6
Continuous
 62
     7
100
AcDbLine
 10
91.15100862253104
 20
99.48578169836341
 30
0.0
 11
91.90100862253092
 21
99.48578169836341
 31
0.0
  0
LINE
  5
B9
330
1F
100
AcDbEntity
  8
Sichtbare_Kanten_TC_020513_DIN_
  6
Continuous
 62
     7
100
AcDbLine
 10
91.15100862253104
 20
100.3593586983294
 30
0.0
 11
91.15100862253104
 21
99.48578169836341
 31
0.0
  0
LINE
  5
BA
330
1F
100
AcDbEntity
  8
Sichtbare_Kanten_TC_020513_DIN_
  6
Continuous
 62
     7
100
AcDbLine
 10
91.77611967503839
 20
99.99887799138341
 30
0.0
 11
91.15100862253104
 21
100.3593586983294
 31
0.0
  0
LINE
  5
BB
330
1F
100
AcDbEntity
  8
Sichtbare_Kanten_TC_020513_DIN_
  6
Continuous
 62
     7
100
AcDbLine
 10
91.0258975700234
 20
101.0086855164054
 30
0.0
 11
92.0258975700234
 21
100.4320188497384
 31
0.0
  0
LINE
  5
BC
330
1F
100
AcDbEntity
  8
Sichtbare_Kanten_TC_020513_DIN_
  6
Continuous
 62
     7
100
AcDbLine
 10
86.15100862253092
 20
100.2257816983624
 30
0.0
 11
86.15100862253104
 21
98.2457816983624
 31
0.0
  0
LINE
  5
BD
330
1F
100
AcDbEntity
  8
Sichtbare_Kanten_TC_020513_DIN_
  6
Continuous
 62
     7
100
AcDbLine
 10
85.65100862253104
 20
98.2457816983624
 30
0.0
 11
85.65100862253104
 21
100.2257816983624
 31
0.0
  0
LINE
  5
BE
330
1F
100
AcDbEntity
  8
Sichtbare_Kanten_TC_020513_DIN_
  6
Continuous
 62
     7
100
AcDbLine
 10
82.90100862253092
 20
99.23578169836239
 30
0.0
 11
88.90100862253104
 21
95.7757816983634
 31
0.0
  0
LINE
  5
BF
330
1F
100
AcDbEntity
  8
Sichtbare_Kanten_TC_020513_DIN_
  6
Continuous
 62
     7
100
AcDbLine
 10
88.90100862253104
 20
95.7757816983634
 30
0.0
 11
94.90100862253132
 21
99.23578169836239
 31
0.0
  0
LINE
  5
C0
330
1F
100
AcDbEntity
  8
Sichtbare_Kanten_TC_020513_DIN_
  6
Continuous
 62
     7
100
AcDbLine
 10
94.90100862253132
 20
99.23578169836239
 30
0.0
 11
88.90100862253104
 21
102.6957816983634
 31
0.0
  0
LINE
  5
C1
330
1F
100
AcDbEntity
  8
Sichtbare_Kanten_TC_020513_DIN_
  6
Continuous
 62
     7
100
AcDbLine
 10
88.90100862253104
 20
102.6957816983634
 30
0.0
 11
82.90100862253092
 21
99.23578169836239
 31
0.0
  0
LINE
  5
C2
330
1F
100
AcDbEntity
  8
Sichtbare_Kanten_TC_020513_DIN_
  6
Continuous
 62
     7
100
AcDbLine
 10
88.90100862253104
 20
95.48719197613141
 30
0.0
 11
82.40056401750422
 21
99.23578169836341
 31
0.0
  0
LINE
  5
C3
330
1F
100
AcDbEntity
  8
Sichtbare_Kanten_TC_020513_DIN_
  6
Continuous
 62
     7
100
AcDbLine
 10
95.40145322755728
 20
99.23578169836341
 30
0.0
 11
88.90100862253104
 21
95.48719197613141
 31
0.0
  0
LINE
  5
C4
330
1F
100
AcDbEntity
  8
Sichtbare_Kanten_TC_020513_DIN_
  6
Continuous
 62
     7
100
AcDbLine
 10
88.90100862253104
 20
102.9843714205954
 30
0.0
 11
95.40145322755728
 21
99.23578169836341
 31
0.0
  0
LINE
  5
C5
330
1F
100
AcDbEntity
  8
Sichtbare_Kanten_TC_020513_DIN_
  6
Continuous
 62
     7
100
AcDbLine
 10
82.40056401750422
 20
99.23578169836341
 30
0.0
 11
88.90100862253104
 21
102.9843714205954
 31
0.0
  0
LINE
  5
C6
330
1F
100
AcDbEntity
  8
Sichtbare_Kanten_TC_020513_DIN_
  6
Continuous
 62
     7
100
AcDbLine
 10
88.7761196750385
 20
96.3095445469884
 30
0.0
 11
86.7761196750385
 21
97.4628778803214
 31
0.0
  0
LINE
  5
C7
330
1F
100
AcDbEntity
  8
Sichtbare_Kanten_TC_020513_DIN_
  6
Continuous
 62
     7
100
AcDbLine
 10
87.15100862253104
 20
97.8238713650644
 30
0.0
 11
89.0258975700234
 21
96.7426854053434
 31
0.0
  0
LINE
  5
C8
330
1F
100
AcDbEntity
  8
Sichtbare_Kanten_TC_020513_DIN_
  6
Continuous
 62
     7
100
AcDbLine
 10
87.15100862253104
 20
100.7921150872274
 30
0.0
 11
87.15100862253104
 21
97.8238713650644
 31
0.0
  0
LINE
  5
C9
330
1F
100
AcDbEntity
  8
Sichtbare_Kanten_TC_020513_DIN_
  6
Continuous
 62
     7
100
AcDbLine
 10
86.65100862253092
 20
97.6794483094994
 30
0.0
 11
86.65100862253092
 21
100.7921150872274
 31
0.0
  0
LINE
  5
CA
330
1F
100
AcDbEntity
  8
Sichtbare_Kanten_TC_020513_DIN_
  6
Continuous
 62
     7
100
AcDbLine
 10
88.15100862253092
 20
100.6161028185424
 30
0.0
 11
88.15100862253092
 21
98.2457816983624
 31
0.0
  0
LINE
  5
CB
330
1F
100
AcDbEntity
  8
Sichtbare_Kanten_TC_020513_DIN_
  6
Continuous
 62
     7
100
AcDbLine
 10
88.90100862253104
 20
99.6116395154344
 30
0.0
 11
88.15100862253092
 21
100.6161028185424
 31
0.0
  0
LINE
  5
CC
330
1F
100
AcDbEntity
  8
Sichtbare_Kanten_TC_020513_DIN_
  6
Continuous
 62
     7
100
AcDbLine
 10
89.65100862253104
 20
100.6161028185424
 30
0.0
 11
88.90100862253104
 21
99.6116395154344
 31
0.0
  0
LINE
  5
CD
330
1F
100
AcDbEntity
  8
Sichtbare_Kanten_TC_020513_DIN_
  6
Continuous
 62
     7
100
AcDbLine
 10
89.65100862253104
 20
97.10278164283241
 30
0.0
 11
89.65100862253104
 21
100.6161028185424
 31
0.0
  0
LINE
  5
CE
330
1F
100
AcDbEntity
  8
Sichtbare_Kanten_TC_020513_DIN_
  6
Continuous
 62
     7
100
AcDbLine
 10
90.15100862253104
 20
101.3687817538944
 30
0.0
 11
90.15100862253104
 21
97.10278164283241
 31
0.0
  0
LINE
  5
CF
330
1F
100
AcDbEntity
  8
Sichtbare_Kanten_TC_020513_DIN_
  6
Continuous
 62
     7
100
AcDbLine
 10
88.90100862253104
 20
100.4473551840654
 30
0.0
 11
89.70068863715579
 21
101.5183541559584
 31
0.0
  0
LINE
  5
D0
330
1F
100
AcDbEntity
  8
Sichtbare_Kanten_TC_020513_DIN_
  6
Continuous
 62
     7
100
AcDbLine
 10
88.10132860790611
 20
101.5183541559584
 30
0.0
 11
88.90100862253104
 21
100.4473551840654
 31
0.0
  0
LINE
  5
D1
330
1F
100
AcDbEntity
  8
Sichtbare_Kanten_TC_020513_DIN_
  6
Continuous
 62
     7
100
AcDbLine
 10
87.65100862253104
 20
98.2457816983624
 30
0.0
 11
87.65100862253092
 21
101.3687817538944
 31
0.0
  0
LINE
  5
D2
330
1F
100
AcDbEntity
  8
Sichtbare_Kanten_TC_020513_DIN_
  6
Continuous
 62
     7
100
AcDbLine
 10
61.15100862253104
 20
74.23578169836259
 30
0.0
 11
61.15100862253104
 21
78.23578169836259
 31
0.0
  0
LINE
  5
D3
330
1F
100
AcDbEntity
  8
Sichtbare_Kanten_TC_020513_DIN_
  6
Continuous
 62
     7
100
AcDbLine
 10
116.6510086225313
 20
74.23578169836259
 30
0.0
 11
61.15100862253104
 21
74.23578169836259
 31
0.0
  0
LINE
  5
D4
330
1F
100
AcDbEntity
  8
Sichtbare_Kanten_TC_020513_DIN_
  6
Continuous
 62
     7
100
AcDbLine
 10
116.6510086225313
 20
74.23578169836259
 30
0.0
 11
116.6510086225313
 21
78.23578169836259
 31
0.0
  0
LINE
  5
D5
330
1F
100
AcDbEntity
  8
Sichtbare_Kanten_TC_020513_DIN_
  6
Continuous
 62
     7
100
AcDbLine
 10
135.6510086225313
 20
74.23578169836259
 30
0.0
 11
126.6510086225313
 21
74.23578169836259
 31
0.0
  0
LINE
  5
D6
330
1F
100
AcDbEntity
  8
Sichtbare_Kanten_TC_020513_DIN_
  6
Continuous
 62
     7
100
AcDbLine
 10
126.6510086225313
 20
74.23578169836259
 30
0.0
 11
116.6510086225313
 21
74.23578169836259
 31
0.0
  0
LINE
  5
D7
330
1F
100
AcDbEntity
  8
Sichtbare_Kanten_TC_020513_DIN_
  6
Continuous
 62
     7
100
AcDbLine
 10
61.15100862253104
 20
74.23578169836259
 30
0.0
 11
51.15100862253104
 21
74.23578169836259
 31
0.0
  0
LINE
  5
D8
330
1F
100
AcDbEntity
  8
Sichtbare_Kanten_TC_020513_DIN_
  6
Continuous
 62
     7
100
AcDbLine
 10
51.15100862253104
 20
74.23578169836259
 30
0.0
 11
42.15100862253092
 21
74.23578169836259
 31
0.0
  0
LINE
  5
D9
330
1F
100
AcDbEntity
  8
Sichtbare_Kanten_TC_020513_DIN_
  6
Continuous
 62
     7
100
AcDbLine
 10
51.15100862253104
 20
78.23578169836259
 30
0.0
 11
42.15100862253092
 21
78.23578169836259
 31
0.0
  0
LINE
  5
DA
330
1F
100
AcDbEntity
  8
Sichtbare_Kanten_TC_020513_DIN_
  6
Continuous
 62
     7
100
AcDbLine
 10
61.15100862253104
 20
78.23578169836259
 30
0.0
 11
51.15100862253104
 21
78.23578169836259
 31
0.0
  0
LINE
  5
DB
330
1F
100
AcDbEntity
  8
Sichtbare_Kanten_TC_020513_DIN_
  6
Continuous
 62
     7
100
AcDbLine
 10
135.6510086225313
 20
74.23578169836259
 30
0.0
 11
135.6510086225313
 21
78.23578169836259
 31
0.0
  0
LINE
  5
DC
330
1F
100
AcDbEntity
  8
Sichtbare_Kanten_TC_020513_DIN_
  6
Continuous
 62
     7
100
AcDbLine
 10
126.6510086225313
 20
78.23578169836259
 30
0.0
 11
116.6510086225313
 21
78.23578169836259
 31
0.0
  0
LINE
  5
DD
330
1F
100
AcDbEntity
  8
Sichtbare_Kanten_TC_020513_DIN_
  6
Continuous
 62
     7
100
AcDbLine
 10
135.6510086225313
 20
78.23578169836259
 30
0.0
 11
126.6510086225313
 21
78.23578169836259
 31
0.0
  0
LINE
  5
DE
330
1F
100
AcDbEntity
  8
Sichtbare_Kanten_TC_020513_DIN_
  6
Continuous
 62
     7
100
AcDbLine
 10
126.6510086225313
 20
74.23578169836259
 30
0.0
 11
126.6510086225313
 21
78.23578169836259
 31
0.0
  0
LINE
  5
DF
330
1F
100
AcDbEntity
  8
Sichtbare_Kanten_TC_020513_DIN_
  6
Continuous
 62
     7
100
AcDbLine
 10
51.15100862253104
 20
74.23578169836259
 30
0.0
 11
51.15100862253104
 21
78.23578169836259
 31
0.0
  0
LINE
  5
E0
330
1F
100
AcDbEntity
  8
Sichtbare_Kanten_TC_020513_DIN_
  6
Continuous
 62
     7
100
AcDbLine
 10
42.15100862253092
 20
74.23578169836259
 30
0.0
 11
42.15100862253092
 21
78.23578169836259
 31
0.0
  0
LINE
  5
E1
330
1F
100
AcDbEntity
  8
Sichtbare_Kanten_TC_020513_DIN_
  6
Continuous
 62
     7
100
AcDbLine
 10
117.9010086225313
 20
127.2357816983624
 30
0.0
 11
111.7853418145243
 21
127.2357816983624
 31
0.0
  0
LINE
  5
E2
330
1F
100
AcDbEntity
  8
Sichtbare_Kanten_TC_020513_DIN_
  6
Continuous
 62
     7
100
AcDbLine
 10
96.0764533021943
 20
127.2357816983624
 30
0.0
 11
81.72556394286772
 21
127.2357816983624
 31
0.0
  0
LINE
  5
E3
330
1F
100
AcDbEntity
  8
Sichtbare_Kanten_TC_020513_DIN_
  6
Continuous
 62
     7
100
AcDbLine
 10
66.01667543053713
 20
127.2357816983624
 30
0.0
 11
59.90100862253104
 21
127.2357816983624
 31
0.0
  0
LINE
  5
E4
330
1F
100
AcDbEntity
  8
Sichtbare_Kanten_TC_020513_DIN_
  6
Continuous
 62
     7
100
AcDbLine
 10
123.9010086225313
 20
78.23578169836259
 30
0.0
 11
123.9010086225313
 21
118.2357816983624
 31
0.0
  0
LINE
  5
E5
330
1F
100
AcDbEntity
  8
Sichtbare_Kanten_TC_020513_DIN_
  6
Continuous
 62
     7
100
AcDbLine
 10
123.9010086225313
 20
125.2357816983624
 30
0.0
 11
123.9010086225313
 21
127.2357816983624
 31
0.0
  0
LINE
  5
E6
330
1F
100
AcDbEntity
  8
Sichtbare_Kanten_TC_020513_DIN_
  6
Continuous
 62
     7
100
AcDbLine
 10
53.90100862253104
 20
78.23578169836259
 30
0.0
 11
53.90100862253104
 21
118.2357816983624
 31
0.0
  0
LINE
  5
E7
330
1F
100
AcDbEntity
  8
Sichtbare_Kanten_TC_020513_DIN_
  6
Continuous
 62
     7
100
AcDbLine
 10
53.90100862253104
 20
125.2357816983624
 30
0.0
 11
53.90100862253104
 21
127.2357816983624
 31
0.0
  0
LINE
  5
E8
330
1F
100
AcDbEntity
  8
Sichtbare_Kanten_TC_020513_DIN_
  6
Continuous
 62
     7
100
AcDbLine
 10
53.90100862253104
 20
127.2357816983624
 30
0.0
 11
59.90100862253104
 21
127.2357816983624
 31
0.0
  0
LINE
  5
E9
330
1F
100
AcDbEntity
  8
Sichtbare_Kanten_TC_020513_DIN_
  6
Continuous
 62
     7
100
AcDbLine
 10
117.9010086225313
 20
127.2357816983624
 30
0.0
 11
123.9010086225313
 21
127.2357816983624
 31
0.0
  0
LINE
  5
EA
330
1F
100
AcDbEntity
  8
Sichtbare_Kanten_TC_020513_DIN_
  6
Continuous
 62
     7
100
AcDbLine
 10
42.15100862253092
 20
90.8157816983624
 30
0.0
 11
42.15100862253092
 21
78.23578169836259
 31
0.0
  0
LINE
  5
EB
330
1F
100
AcDbEntity
  8
Sichtbare_Kanten_TC_020513_DIN_
  6
Continuous
 62
     7
100
AcDbLine
 10
42.15100862253092
 20
90.8157816983624
 30
0.0
 11
42.15100862253092
 21
103.1457816983624
 31
0.0
  0
LINE
  5
EC
330
1F
100
AcDbEntity
  8
Sichtbare_Kanten_TC_020513_DIN_
  6
Continuous
 62
     7
100
AcDbLine
 10
53.90100862253104
 20
103.1457816983624
 30
0.0
 11
42.15100862253092
 21
103.1457816983624
 31
0.0
  0
LINE
  5
ED
330
1F
100
AcDbEntity
  8
Sichtbare_Kanten_TC_020513_DIN_
  6
Continuous
 62
     7
100
AcDbLine
 10
135.6510086225313
 20
90.8157816983624
 30
0.0
 11
135.6510086225313
 21
102.5577816983624
 31
0.0
  0
LINE
  5
EE
330
1F
100
AcDbEntity
  8
Sichtbare_Kanten_TC_020513_DIN_
  6
Continuous
 62
     7
100
AcDbLine
 10
135.6510086225313
 20
90.8157816983624
 30
0.0
 11
135.6510086225313
 21
79.07378169836258
 31
0.0
  0
LINE
  5
EF
330
1F
100
AcDbEntity
  8
Sichtbare_Kanten_TC_020513_DIN_
  6
Continuous
 62
     7
100
AcDbLine
 10
135.6510086225313
 20
103.1457816983624
 30
0.0
 11
123.9010086225313
 21
103.1457816983624
 31
0.0
  0
LINE
  5
F0
330
1F
100
AcDbEntity
  8
Sichtbare_Kanten_TC_020513_DIN_
  6
Continuous
 62
     7
100
AcDbLine
 10
54.10100862253091
 20
131.2357816983624
 30
0.0
 11
54.10100862253091
 21
127.2357816983624
 31
0.0
  0
LINE
  5
F1
330
1F
100
AcDbEntity
  8
Sichtbare_Kanten_TC_020513_DIN_
  6
Continuous
 62
     7
100
AcDbLine
 10
59.90100862253104
 20
131.2357816983624
 30
0.0
 11
54.10100862253091
 21
131.2357816983624
 31
0.0
  0
LINE
  5
F2
330
1F
100
AcDbEntity
  8
Sichtbare_Kanten_TC_020513_DIN_
  6
Continuous
 62
     7
100
AcDbLine
 10
59.90100862253104
 20
131.2357816983624
 30
0.0
 11
61.26384166035228
 21
131.2357816983624
 31
0.0
  0
LINE
  5
F3
330
1F
100
AcDbEntity
  8
Sichtbare_Kanten_TC_020513_DIN_
  6
Continuous
 62
     7
100
AcDbLine
 10
72.40100862253104
 20
131.2357816983624
 30
0.0
 11
105.4010086225313
 21
131.2357816983624
 31
0.0
  0
LINE
  5
F4
330
1F
100
AcDbEntity
  8
Sichtbare_Kanten_TC_020513_DIN_
  6
Continuous
 62
     7
100
AcDbLine
 10
116.5381755847093
 20
131.2357816983624
 30
0.0
 11
117.9010086225313
 21
131.2357816983624
 31
0.0
  0
LINE
  5
F5
330
1F
100
AcDbEntity
  8
Sichtbare_Kanten_TC_020513_DIN_
  6
Continuous
 62
     7
100
AcDbLine
 10
123.7010086225313
 20
131.2357816983624
 30
0.0
 11
123.7010086225313
 21
127.2357816983624
 31
0.0
  0
LINE
  5
F6
330
1F
100
AcDbEntity
  8
Sichtbare_Kanten_TC_020513_DIN_
  6
Continuous
 62
     7
100
AcDbLine
 10
123.7010086225313
 20
131.2357816983624
 30
0.0
 11
117.9010086225313
 21
131.2357816983624
 31
0.0
  0
LINE
  5
F7
330
1F
100
AcDbEntity
  8
Sichtbare_Kanten_TC_020513_DIN_
  6
Continuous
 62
     7
100
AcDbLine
 10
134.0898975114193
 20
112.0191443957714
 30
0.0
 11
137.2010086225313
 21
112.0191443957714
 31
0.0
  0
LINE
  5
F8
330
1F
100
AcDbEntity
  8
Sichtbare_Kanten_TC_020513_DIN_
  6
Continuous
 62
     7
100
AcDbLine
 10
134.0898975114193
 20
112.0191443957714
 30
0.0
 11
133.7010086225313
 21
112.0191443957714
 31
0.0
  0
LINE
  5
F9
330
1F
100
AcDbEntity
  8
Sichtbare_Kanten_TC_020513_DIN_
  6
Continuous
 62
     7
100
AcDbLine
 10
126.7010086225313
 20
112.0191443957724
 30
0.0
 11
126.6633537075233
 21
112.0191443957724
 31
0.0
  0
LINE
  5
FA
330
1F
100
AcDbEntity
  8
Sichtbare_Kanten_TC_020513_DIN_
  6
Continuous
 62
     7
100
AcDbLine
 10
137.2010086225313
 20
112.0191443957714
 30
0.0
 11
137.2010086225313
 21
113.4191443957714
 31
0.0
  0
LINE
  5
FB
330
1F
100
AcDbEntity
  8
Sichtbare_Kanten_TC_020513_DIN_
  6
Continuous
 62
     7
100
AcDbLine
 10
126.7010086225313
 20
113.4191443957724
 30
0.0
 11
126.6633537075233
 21
113.4191443957714
 31
0.0
  0
LINE
  5
FC
330
1F
100
AcDbEntity
  8
Sichtbare_Kanten_TC_020513_DIN_
  6
Continuous
 62
     7
100
AcDbLine
 10
134.0898975114193
 20
113.4191443957714
 30
0.0
 11
133.7010086225313
 21
113.4191443957714
 31
0.0
  0
LINE
  5
FD
330
1F
100
AcDbEntity
  8
Sichtbare_Kanten_TC_020513_DIN_
  6
Continuous
 62
     7
100
AcDbLine
 10
134.0898975114193
 20
113.4191443957714
 30
0.0
 11
137.2010086225313
 21
113.4191443957714
 31
0.0
  0
LINE
  5
FE
330
1F
100
AcDbEntity
  8
Sichtbare_Kanten_TC_020513_DIN_
  6
Continuous
 62
     7
100
AcDbLine
 10
133.7010086225313
 20
114.8191443957714
 30
0.0
 11
133.7010086225313
 21
117.2357816983624
 31
0.0
  0
LINE
  5
FF
330
1F
100
AcDbEntity
  8
Sichtbare_Kanten_TC_020513_DIN_
  6
Continuous
 62
     7
100
AcDbLine
 10
125.7010086225313
 20
125.2357816983624
 30
0.0
 11
112.4010086225313
 21
125.2357816983624
 31
0.0
  0
LINE
  5
100
330
1F
100
AcDbEntity
  8
Sichtbare_Kanten_TC_020513_DIN_
  6
Continuous
 62
     7
100
AcDbLine
 10
95.40100862253132
 20
124.2357816983624
 30
0.0
 11
95.40100862253132
 21
110.7357816983624
 31
0.0
  0
LINE
  5
101
330
1F
100
AcDbEntity
  8
Sichtbare_Kanten_TC_020513_DIN_
  6
Continuous
 62
     7
100
AcDbLine
 10
114.4010086225313
 20
118.2357816983624
 30
0.0
 11
125.7010086225313
 21
118.2357816983624
 31
0.0
  0
LINE
  5
102
330
1F
100
AcDbEntity
  8
Sichtbare_Kanten_TC_020513_DIN_
  6
Continuous
 62
     7
100
AcDbLine
 10
126.7010086225313
 20
117.2357816983624
 30
0.0
 11
126.7010086225313
 21
114.8191443957714
 31
0.0
  0
LINE
  5
103
330
1F
100
AcDbEntity
  8
Sichtbare_Kanten_TC_020513_DIN_
  6
Continuous
 62
     7
100
AcDbLine
 10
126.5633537075233
 20
111.0814894807644
 30
0.0
 11
125.1633537075233
 21
111.0814894807644
 31
0.0
  0
LINE
  5
104
330
1F
100
AcDbEntity
  8
Sichtbare_Kanten_TC_020513_DIN_
  6
Continuous
 62
     7
100
AcDbLine
 10
125.1633537075233
 20
111.9191443957714
 30
0.0
 11
125.1633537075233
 21
111.0814894807644
 31
0.0
  0
LINE
  5
105
330
1F
100
AcDbEntity
  8
Sichtbare_Kanten_TC_020513_DIN_
  6
Continuous
 62
     7
100
AcDbLine
 10
126.5633537075233
 20
111.9191443957714
 30
0.0
 11
126.5633537075233
 21
111.0814894807644
 31
0.0
  0
LINE
  5
106
330
1F
100
AcDbEntity
  8
Sichtbare_Kanten_TC_020513_DIN_
  6
Continuous
 62
     7
100
AcDbLine
 10
133.7010086225313
 20
112.0191443957714
 30
0.0
 11
126.7010086225313
 21
112.0191443957724
 31
0.0
  0
LINE
  5
107
330
1F
100
AcDbEntity
  8
Sichtbare_Kanten_TC_020513_DIN_
  6
Continuous
 62
     7
100
AcDbLine
 10
126.7010086225313
 20
112.0191443957724
 30
0.0
 11
126.7010086225313
 21
114.8191443957714
 31
0.0
  0
LINE
  5
108
330
1F
100
AcDbEntity
  8
Sichtbare_Kanten_TC_020513_DIN_
  6
Continuous
 62
     7
100
AcDbLine
 10
133.7010086225313
 20
114.8191443957714
 30
0.0
 11
133.7010086225313
 21
112.0191443957714
 31
0.0
  0
LINE
  5
109
330
1F
100
AcDbEntity
  8
Sichtbare_Kanten_TC_020513_DIN_
  6
Continuous
 62
     7
100
AcDbLine
 10
51.10100862253091
 20
112.0191443957724
 30
0.0
 11
51.13866353753843
 21
112.0191443957724
 31
0.0
  0
LINE
  5
10A
330
1F
100
AcDbEntity
  8
Sichtbare_Kanten_TC_020513_DIN_
  6
Continuous
 62
     7
100
AcDbLine
 10
43.71211973364211
 20
112.0191443957724
 30
0.0
 11
44.10100862253091
 21
112.0191443957724
 31
0.0
  0
LINE
  5
10B
330
1F
100
AcDbEntity
  8
Sichtbare_Kanten_TC_020513_DIN_
  6
Continuous
 62
     7
100
AcDbLine
 10
43.71211973364211
 20
112.0191443957724
 30
0.0
 11
40.60100862253103
 21
112.0191443957724
 31
0.0
  0
LINE
  5
10C
330
1F
100
AcDbEntity
  8
Sichtbare_Kanten_TC_020513_DIN_
  6
Continuous
 62
     7
100
AcDbLine
 10
51.2386635375384
 20
111.0814894807644
 30
0.0
 11
52.63866353753849
 21
111.0814894807644
 31
0.0
  0
LINE
  5
10D
330
1F
100
AcDbEntity
  8
Sichtbare_Kanten_TC_020513_DIN_
  6
Continuous
 62
     7
100
AcDbLine
 10
52.63866353753843
 20
111.9191443957714
 30
0.0
 11
52.63866353753849
 21
111.0814894807644
 31
0.0
  0
LINE
  5
10E
330
1F
100
AcDbEntity
  8
Sichtbare_Kanten_TC_020513_DIN_
  6
Continuous
 62
     7
100
AcDbLine
 10
51.23866353753851
 20
111.9191443957714
 30
0.0
 11
51.2386635375384
 21
111.0814894807644
 31
0.0
  0
LINE
  5
10F
330
1F
100
AcDbEntity
  8
Sichtbare_Kanten_TC_020513_DIN_
  6
Continuous
 62
     7
100
AcDbLine
 10
51.10100862253091
 20
113.4191443957724
 30
0.0
 11
51.13866353753843
 21
113.4191443957714
 31
0.0
  0
LINE
  5
110
330
1F
100
AcDbEntity
  8
Sichtbare_Kanten_TC_020513_DIN_
  6
Continuous
 62
     7
100
AcDbLine
 10
43.71211973364211
 20
113.4191443957714
 30
0.0
 11
40.60100862253103
 21
113.4191443957724
 31
0.0
  0
LINE
  5
111
330
1F
100
AcDbEntity
  8
Sichtbare_Kanten_TC_020513_DIN_
  6
Continuous
 62
     7
100
AcDbLine
 10
43.71211973364211
 20
113.4191443957714
 30
0.0
 11
44.10100862253091
 21
113.4191443957714
 31
0.0
  0
LINE
  5
112
330
1F
100
AcDbEntity
  8
Sichtbare_Kanten_TC_020513_DIN_
  6
Continuous
 62
     7
100
AcDbLine
 10
51.10100862253091
 20
117.2357816983624
 30
0.0
 11
51.10100862253091
 21
114.8191443957714
 31
0.0
  0
LINE
  5
113
330
1F
100
AcDbEntity
  8
Sichtbare_Kanten_TC_020513_DIN_
  6
Continuous
 62
     7
100
AcDbLine
 10
63.40100862253104
 20
118.2357816983624
 30
0.0
 11
52.10100862253091
 21
118.2357816983624
 31
0.0
  0
LINE
  5
114
330
1F
100
AcDbEntity
  8
Sichtbare_Kanten_TC_020513_DIN_
  6
Continuous
 62
     7
100
AcDbLine
 10
82.40100862253092
 20
124.2357816983624
 30
0.0
 11
82.40100862253104
 21
110.7357816983624
 31
0.0
  0
LINE
  5
115
330
1F
100
AcDbEntity
  8
Sichtbare_Kanten_TC_020513_DIN_
  6
Continuous
 62
     7
100
AcDbLine
 10
52.10100862253091
 20
125.2357816983624
 30
0.0
 11
65.40100862253104
 21
125.2357816983624
 31
0.0
  0
LINE
  5
116
330
1F
100
AcDbEntity
  8
Sichtbare_Kanten_TC_020513_DIN_
  6
Continuous
 62
     7
100
AcDbLine
 10
44.10100862253091
 20
114.8191443957714
 30
0.0
 11
44.10100862253103
 21
117.2357816983624
 31
0.0
  0
LINE
  5
117
330
1F
100
AcDbEntity
  8
Sichtbare_Kanten_TC_020513_DIN_
  6
Continuous
 62
     7
100
AcDbLine
 10
40.60100862253103
 20
112.0191443957724
 30
0.0
 11
40.60100862253103
 21
113.4191443957724
 31
0.0
  0
LINE
  5
118
330
1F
100
AcDbEntity
  8
Sichtbare_Kanten_TC_020513_DIN_
  6
Continuous
 62
     7
100
AcDbLine
 10
53.37556309610193
 20
144.0792429671524
 30
0.0
 11
50.03437131994019
 21
142.0320232825544
 31
0.0
  0
LINE
  5
119
330
1F
100
AcDbEntity
  8
Sichtbare_Kanten_TC_020513_DIN_
  6
Continuous
 62
     7
100
AcDbLine
 10
79.90100862253092
 20
114.0981267833554
 30
0.0
 11
79.90100862253092
 21
114.1371695172284
 31
0.0
  0
LINE
  5
11A
330
1F
100
AcDbEntity
  8
Sichtbare_Kanten_TC_020513_DIN_
  6
Continuous
 62
     7
100
AcDbLine
 10
72.40100862253104
 20
130.5603370186994
 30
0.0
 11
72.40100862253104
 21
132.2357816983624
 31
0.0
  0
LINE
  5
11B
330
1F
100
AcDbEntity
  8
Sichtbare_Kanten_TC_020513_DIN_
  6
Continuous
 62
     7
100
AcDbLine
 10
72.40100862253104
 20
132.2357816983624
 30
0.0
 11
70.17213068619469
 21
135.4509162290614
 31
0.0
  0
LINE
  5
11C
330
1F
100
AcDbEntity
  8
Sichtbare_Kanten_TC_020513_DIN_
  6
Continuous
 62
     7
100
AcDbLine
 10
70.11400666686131
 20
135.9089919653764
 30
0.0
 11
71.17965167535493
 21
138.7946741014904
 31
0.0
  0
LINE
  5
11D
330
1F
100
AcDbEntity
  8
Sichtbare_Kanten_TC_020513_DIN_
  6
Continuous
 62
     7
100
AcDbLine
 10
79.66129030335912
 20
149.2357816983624
 30
0.0
 11
71.66129030335912
 21
149.2357816983624
 31
0.0
  0
LINE
  5
11E
330
1F
100
AcDbEntity
  8
Sichtbare_Kanten_TC_020513_DIN_
  6
Continuous
 62
     7
100
AcDbLine
 10
50.03437131994019
 20
131.5967670333574
 30
0.0
 11
51.40100862253104
 21
131.5967670333574
 31
0.0
  0
LINE
  5
11F
330
1F
100
AcDbEntity
  8
Sichtbare_Kanten_TC_020513_DIN_
  6
Continuous
 62
     7
100
AcDbLine
 10
52.18530814871662
 20
131.9763846889724
 30
0.0
 11
55.00885885943814
 21
135.5459728705554
 31
0.0
  0
LINE
  5
120
330
1F
100
AcDbEntity
  8
Sichtbare_Kanten_TC_020513_DIN_
  6
Continuous
 62
     7
100
AcDbLine
 10
55.7111997947236
 20
135.6279314614554
 30
0.0
 11
65.82495668395813
 21
127.6279314614554
 31
0.0
  0
LINE
  5
121
330
1F
100
AcDbEntity
  8
Sichtbare_Kanten_TC_020513_DIN_
  6
Continuous
 62
     7
100
AcDbLine
 10
66.01286286081131
 20
127.2793595697364
 30
0.0
 11
66.13996321613689
 21
125.8265958606654
 31
0.0
  0
LINE
  5
122
330
1F
100
AcDbEntity
  8
Sichtbare_Kanten_TC_020513_DIN_
  6
Continuous
 62
     7
100
AcDbLine
 10
76.96486796089653
 20
114.2357816983624
 30
0.0
 11
77.00100862253089
 21
114.2357816983624
 31
0.0
  0
LINE
  5
123
330
1F
100
AcDbEntity
  8
Sichtbare_Kanten_TC_020513_DIN_
  6
Continuous
 62
     7
100
AcDbLine
 10
77.00100862253089
 20
114.2357816983624
 30
0.0
 11
77.00100862253089
 21
114.0981267833554
 31
0.0
  0
LINE
  5
124
330
1F
100
AcDbEntity
  8
Sichtbare_Kanten_TC_020513_DIN_
  6
Continuous
 62
     7
100
AcDbLine
 10
48.63437131994022
 20
131.4114717946334
 30
0.0
 11
48.63437131994022
 21
130.0365900048604
 31
0.0
  0
LINE
  5
125
330
1F
100
AcDbEntity
  8
Sichtbare_Kanten_TC_020513_DIN_
  6
Continuous
 62
     7
100
AcDbLine
 10
47.23437131994024
 20
130.0365900048604
 30
0.0
 11
47.23437131994024
 21
131.4114717946334
 31
0.0
  0
LINE
  5
126
330
1F
100
AcDbEntity
  8
Sichtbare_Kanten_TC_020513_DIN_
  6
Continuous
 62
     7
100
AcDbLine
 10
48.63437131994022
 20
131.5967670333574
 30
0.0
 11
48.63437131994022
 21
131.4114717946334
 31
0.0
  0
LINE
  5
127
330
1F
100
AcDbEntity
  8
Sichtbare_Kanten_TC_020513_DIN_
  6
Continuous
 62
     7
100
AcDbLine
 10
47.23437131994024
 20
131.4114717946334
 30
0.0
 11
47.23437131994024
 21
131.5967670333574
 31
0.0
  0
LINE
  5
128
330
1F
100
AcDbEntity
  8
Sichtbare_Kanten_TC_020513_DIN_
  6
Continuous
 62
     7
100
AcDbLine
 10
40.90009592714443
 20
142.8134043359484
 30
0.0
 11
39.4177340173494
 21
142.8134043359484
 31
0.0
  0
LINE
  5
129
330
1F
100
AcDbEntity
  8
Sichtbare_Kanten_TC_020513_DIN_
  6
Continuous
 62
     7
100
AcDbLine
 10
39.4177340173494
 20
141.4134043359484
 30
0.0
 11
39.4177340173494
 21
142.8134043359484
 31
0.0
  0
LINE
  5
12A
330
1F
100
AcDbEntity
  8
Sichtbare_Kanten_TC_020513_DIN_
  6
Continuous
 62
     7
100
AcDbLine
 10
39.4177340173494
 20
141.4134043359484
 30
0.0
 11
40.90009592714443
 21
141.4134043359484
 31
0.0
  0
LINE
  5
12B
330
1F
100
AcDbEntity
  8
Sichtbare_Kanten_TC_020513_DIN_
  6
Continuous
 62
     7
100
AcDbLine
 10
40.90009592714443
 20
142.8134043359484
 30
0.0
 11
45.8343713199402
 21
142.8134043359484
 31
0.0
  0
LINE
  5
12C
330
1F
100
AcDbEntity
  8
Sichtbare_Kanten_TC_020513_DIN_
  6
Continuous
 62
     7
100
AcDbLine
 10
45.8343713199402
 20
141.4134043359484
 30
0.0
 11
40.90009592714443
 21
141.4134043359484
 31
0.0
  0
LINE
  5
12D
330
1F
100
AcDbEntity
  8
Sichtbare_Kanten_TC_020513_DIN_
  6
Continuous
 62
     7
100
AcDbLine
 10
77.00100862253089
 20
113.9981267833554
 30
0.0
 11
77.00100862253089
 21
112.5981267833554
 31
0.0
  0
LINE
  5
12E
330
1F
100
AcDbEntity
  8
Sichtbare_Kanten_TC_020513_DIN_
  6
Continuous
 62
     7
100
AcDbLine
 10
77.00100862253089
 20
112.5981267833554
 30
0.0
 11
77.50100862253089
 21
112.5981267833554
 31
0.0
  0
LINE
  5
12F
330
1F
100
AcDbEntity
  8
Sichtbare_Kanten_TC_020513_DIN_
  6
Continuous
 62
     7
100
AcDbLine
 10
77.50100862253089
 20
113.9981267833554
 30
0.0
 11
77.00100862253089
 21
113.9981267833554
 31
0.0
  0
LINE
  5
130
330
1F
100
AcDbEntity
  8
Sichtbare_Kanten_TC_020513_DIN_
  6
Continuous
 62
     7
100
AcDbLine
 10
79.40100862253104
 20
112.5981267833554
 30
0.0
 11
77.50100862253089
 21
112.5981267833554
 31
0.0
  0
LINE
  5
131
330
1F
100
AcDbEntity
  8
Sichtbare_Kanten_TC_020513_DIN_
  6
Continuous
 62
     7
100
AcDbLine
 10
77.50100862253089
 20
113.9981267833554
 30
0.0
 11
79.40100862253104
 21
113.9981267833554
 31
0.0
  0
LINE
  5
132
330
1F
100
AcDbEntity
  8
Sichtbare_Kanten_TC_020513_DIN_
  6
Continuous
 62
     7
100
AcDbLine
 10
79.40100862253104
 20
112.5981267833554
 30
0.0
 11
79.90100862253104
 21
112.5981267833554
 31
0.0
  0
LINE
  5
133
330
1F
100
AcDbEntity
  8
Sichtbare_Kanten_TC_020513_DIN_
  6
Continuous
 62
     7
100
AcDbLine
 10
79.90100862253092
 20
113.9981267833554
 30
0.0
 11
79.90100862253104
 21
112.5981267833554
 31
0.0
  0
LINE
  5
134
330
1F
100
AcDbEntity
  8
Sichtbare_Kanten_TC_020513_DIN_
  6
Continuous
 62
     7
100
AcDbLine
 10
79.90100862253092
 20
113.9981267833554
 30
0.0
 11
79.40100862253104
 21
113.9981267833554
 31
0.0
  0
LINE
  5
135
330
1F
100
AcDbEntity
  8
Sichtbare_Kanten_TC_020513_DIN_
  6
Continuous
 62
     7
100
AcDbLine
 10
45.17696424940732
 20
122.0014115596834
 30
0.0
 11
45.80343746299542
 21
123.3448877017374
 31
0.0
  0
LINE
  5
136
330
1F
100
AcDbEntity
  8
Sichtbare_Kanten_TC_020513_DIN_
  6
Continuous
 62
     7
100
AcDbLine
 10
44.53460656114413
 20
123.9365532681744
 30
0.0
 11
43.90813334755592
 21
122.5930771261204
 31
0.0
  0
LINE
  5
137
330
1F
100
AcDbEntity
  8
Sichtbare_Kanten_TC_020513_DIN_
  6
Continuous
 62
     7
100
AcDbLine
 10
43.90813334755592
 20
122.5930771261204
 30
0.0
 11
45.17696424940732
 21
122.0014115596834
 31
0.0
  0
LINE
  5
138
330
1F
100
AcDbEntity
  8
Sichtbare_Kanten_TC_020513_DIN_
  6
Continuous
 62
     7
100
AcDbLine
 10
44.53460656114413
 20
123.9365532681744
 30
0.0
 11
47.10320222179149
 21
129.4449244384234
 31
0.0
  0
LINE
  5
139
330
1F
100
AcDbEntity
  8
Sichtbare_Kanten_TC_020513_DIN_
  6
Continuous
 62
     7
100
AcDbLine
 10
48.37203312364284
 20
128.8532588719864
 30
0.0
 11
45.80343746299542
 21
123.3448877017374
 31
0.0
  0
LINE
  5
13A
330
1F
100
AcDbEntity
  8
Sichtbare_Kanten_TC_020513_DIN_
  6
Continuous
 62
     7
100
AcDbLine
 10
51.10100862253091
 20
112.0191443957724
 30
0.0
 11
44.10100862253091
 21
112.0191443957724
 31
0.0
  0
LINE
  5
13B
330
1F
100
AcDbEntity
  8
Sichtbare_Kanten_TC_020513_DIN_
  6
Continuous
 62
     7
100
AcDbLine
 10
44.10100862253091
 20
112.0191443957724
 30
0.0
 11
44.10100862253091
 21
114.8191443957714
 31
0.0
  0
LINE
  5
13C
330
1F
100
AcDbEntity
  8
Sichtbare_Kanten_TC_020513_DIN_
  6
Continuous
 62
     7
100
AcDbLine
 10
51.10100862253091
 20
114.8191443957714
 30
0.0
 11
51.10100862253091
 21
112.0191443957724
 31
0.0
  0
LINE
  5
13D
330
1F
100
AcDbEntity
  8
Sichtbare_Kanten_TC_020513_DIN_
  6
Continuous
 62
     7
100
AcDbLine
 10
130.1405259345073
 20
129.1845899608684
 30
0.0
 11
129.4299841214193
 21
128.8532588719864
 31
0.0
  0
LINE
  5
13E
330
1F
100
AcDbEntity
  8
Sichtbare_Kanten_TC_020513_DIN_
  6
Continuous
 62
     7
100
AcDbLine
 10
130.6988150232703
 20
129.4449244384234
 30
0.0
 11
130.1405259345073
 21
129.1845899608684
 31
0.0
  0
LINE
  5
13F
330
1F
100
AcDbEntity
  8
Sichtbare_Kanten_TC_020513_DIN_
  6
Continuous
 62
     7
100
AcDbLine
 10
129.9516420721843
 20
130.0365900048604
 30
0.0
 11
130.5676459251213
 21
130.0365900048604
 31
0.0
  0
LINE
  5
140
330
1F
100
AcDbEntity
  8
Sichtbare_Kanten_TC_020513_DIN_
  6
Continuous
 62
     7
100
AcDbLine
 10
129.1676459251213
 20
130.0365900048604
 30
0.0
 11
129.9516420721843
 21
130.0365900048604
 31
0.0
  0
LINE
  5
141
330
1F
100
AcDbEntity
  8
Sichtbare_Kanten_TC_020513_DIN_
  6
Continuous
 62
     7
100
AcDbLine
 10
97.90100862253132
 20
114.0981267833554
 30
0.0
 11
97.90100862253132
 21
113.9981267833554
 31
0.0
  0
LINE
  5
142
330
1F
100
AcDbEntity
  8
Sichtbare_Kanten_TC_020513_DIN_
  6
Continuous
 62
     7
100
AcDbLine
 10
100.8010086225313
 20
113.9981267833554
 30
0.0
 11
100.8010086225313
 21
114.0981267833554
 31
0.0
  0
LINE
  5
143
330
1F
100
AcDbEntity
  8
Sichtbare_Kanten_TC_020513_DIN_
  6
Continuous
 62
     7
100
AcDbLine
 10
100.8010086225313
 20
114.2357816983624
 30
0.0
 11
100.8010086225313
 21
114.0981267833554
 31
0.0
  0
LINE
  5
144
330
1F
100
AcDbEntity
  8
Sichtbare_Kanten_TC_020513_DIN_
  6
Continuous
 62
     7
100
AcDbLine
 10
100.8371492841653
 20
114.2357816983624
 30
0.0
 11
100.8010086225313
 21
114.2357816983624
 31
0.0
  0
LINE
  5
145
330
1F
100
AcDbEntity
  8
Sichtbare_Kanten_TC_020513_DIN_
  6
Continuous
 62
     7
100
AcDbLine
 10
111.7891543842503
 20
127.2793595697364
 30
0.0
 11
111.6620540289253
 21
125.8265958606654
 31
0.0
  0
LINE
  5
146
330
1F
100
AcDbEntity
  8
Sichtbare_Kanten_TC_020513_DIN_
  6
Continuous
 62
     7
100
AcDbLine
 10
122.0908174503383
 20
135.6279314614554
 30
0.0
 11
111.9770605611033
 21
127.6279314614554
 31
0.0
  0
LINE
  5
147
330
1F
100
AcDbEntity
  8
Sichtbare_Kanten_TC_020513_DIN_
  6
Continuous
 62
     7
100
AcDbLine
 10
125.6167090963453
 20
131.9763846889724
 30
0.0
 11
122.7931583856233
 21
135.5459728705554
 31
0.0
  0
LINE
  5
148
330
1F
100
AcDbEntity
  8
Sichtbare_Kanten_TC_020513_DIN_
  6
Continuous
 62
     7
100
AcDbLine
 10
127.7676459251213
 20
131.5967670333574
 30
0.0
 11
126.4010086225313
 21
131.5967670333574
 31
0.0
  0
LINE
  5
149
330
1F
100
AcDbEntity
  8
Sichtbare_Kanten_TC_020513_DIN_
  6
Continuous
 62
     7
100
AcDbLine
 10
124.4264541489603
 20
144.0792429671524
 30
0.0
 11
127.7676459251213
 21
142.0320232825544
 31
0.0
  0
LINE
  5
14A
330
1F
100
AcDbEntity
  8
Sichtbare_Kanten_TC_020513_DIN_
  6
Continuous
 62
     7
100
AcDbLine
 10
98.14072694170329
 20
149.2357816983624
 30
0.0
 11
106.1407269417023
 21
149.2357816983624
 31
0.0
  0
LINE
  5
14B
330
1F
100
AcDbEntity
  8
Sichtbare_Kanten_TC_020513_DIN_
  6
Continuous
 62
     7
100
AcDbLine
 10
107.6880105782003
 20
135.9089919653764
 30
0.0
 11
106.6223655697073
 21
138.7946741014904
 31
0.0
  0
LINE
  5
14C
330
1F
100
AcDbEntity
  8
Sichtbare_Kanten_TC_020513_DIN_
  6
Continuous
 62
     7
100
AcDbLine
 10
105.4010086225313
 20
132.2357816983624
 30
0.0
 11
107.6298865588673
 21
135.4509162290614
 31
0.0
  0
LINE
  5
14D
330
1F
100
AcDbEntity
  8
Sichtbare_Kanten_TC_020513_DIN_
  6
Continuous
 62
     7
100
AcDbLine
 10
105.4010086225313
 20
130.5603370186994
 30
0.0
 11
105.4010086225313
 21
132.2357816983624
 31
0.0
  0
LINE
  5
14E
330
1F
100
AcDbEntity
  8
Sichtbare_Kanten_TC_020513_DIN_
  6
Continuous
 62
     7
100
AcDbLine
 10
97.90100862253132
 20
114.0981267833554
 30
0.0
 11
97.90100862253132
 21
114.1371695172284
 31
0.0
  0
LINE
  5
14F
330
1F
100
AcDbEntity
  8
Sichtbare_Kanten_TC_020513_DIN_
  6
Continuous
 62
     7
100
AcDbLine
 10
130.5676459251213
 20
130.0365900048604
 30
0.0
 11
130.5676459251213
 21
131.4114717946334
 31
0.0
  0
LINE
  5
150
330
1F
100
AcDbEntity
  8
Sichtbare_Kanten_TC_020513_DIN_
  6
Continuous
 62
     7
100
AcDbLine
 10
129.1676459251213
 20
131.4114717946334
 30
0.0
 11
129.1676459251213
 21
130.0365900048604
 31
0.0
  0
LINE
  5
151
330
1F
100
AcDbEntity
  8
Sichtbare_Kanten_TC_020513_DIN_
  6
Continuous
 62
     7
100
AcDbLine
 10
129.1676459251213
 20
131.5967670333574
 30
0.0
 11
129.1676459251213
 21
131.4114717946334
 31
0.0
  0
LINE
  5
152
330
1F
100
AcDbEntity
  8
Sichtbare_Kanten_TC_020513_DIN_
  6
Continuous
 62
     7
100
AcDbLine
 10
130.5676459251213
 20
131.4114717946334
 30
0.0
 11
130.5676459251213
 21
131.5967670333574
 31
0.0
  0
LINE
  5
153
330
1F
100
AcDbEntity
  8
Sichtbare_Kanten_TC_020513_DIN_
  6
Continuous
 62
     7
100
AcDbLine
 10
136.9019213179173
 20
142.8134043359484
 30
0.0
 11
138.3842832277123
 21
142.8134043359484
 31
0.0
  0
LINE
  5
154
330
1F
100
AcDbEntity
  8
Sichtbare_Kanten_TC_020513_DIN_
  6
Continuous
 62
     7
100
AcDbLine
 10
138.3842832277123
 20
141.4134043359484
 30
0.0
 11
136.9019213179173
 21
141.4134043359484
 31
0.0
  0
LINE
  5
155
330
1F
100
AcDbEntity
  8
Sichtbare_Kanten_TC_020513_DIN_
  6
Continuous
 62
     7
100
AcDbLine
 10
138.3842832277123
 20
141.4134043359484
 30
0.0
 11
138.3842832277123
 21
142.8134043359484
 31
0.0
  0
LINE
  5
156
330
1F
100
AcDbEntity
  8
Sichtbare_Kanten_TC_020513_DIN_
  6
Continuous
 62
     7
100
AcDbLine
 10
131.9676459251213
 20
141.4134043359484
 30
0.0
 11
136.9019213179173
 21
141.4134043359484
 31
0.0
  0
LINE
  5
157
330
1F
100
AcDbEntity
  8
Sichtbare_Kanten_TC_020513_DIN_
  6
Continuous
 62
     7
100
AcDbLine
 10
136.9019213179173
 20
142.8134043359484
 30
0.0
 11
131.9676459251213
 21
142.8134043359484
 31
0.0
  0
LINE
  5
158
330
1F
100
AcDbEntity
  8
Sichtbare_Kanten_TC_020513_DIN_
  6
Continuous
 62
     7
100
AcDbLine
 10
100.8010086225313
 20
112.5981267833554
 30
0.0
 11
100.3010086225313
 21
112.5981267833554
 31
0.0
  0
LINE
  5
159
330
1F
100
AcDbEntity
  8
Sichtbare_Kanten_TC_020513_DIN_
  6
Continuous
 62
     7
100
AcDbLine
 10
100.8010086225313
 20
113.9981267833554
 30
0.0
 11
100.8010086225313
 21
112.5981267833554
 31
0.0
  0
LINE
  5
15A
330
1F
100
AcDbEntity
  8
Sichtbare_Kanten_TC_020513_DIN_
  6
Continuous
 62
     7
100
AcDbLine
 10
100.3010086225313
 20
113.9981267833554
 30
0.0
 11
100.8010086225313
 21
113.9981267833554
 31
0.0
  0
LINE
  5
15B
330
1F
100
AcDbEntity
  8
Sichtbare_Kanten_TC_020513_DIN_
  6
Continuous
 62
     7
100
AcDbLine
 10
98.40100862253132
 20
112.5981267833554
 30
0.0
 11
100.3010086225313
 21
112.5981267833554
 31
0.0
  0
LINE
  5
15C
330
1F
100
AcDbEntity
  8
Sichtbare_Kanten_TC_020513_DIN_
  6
Continuous
 62
     7
100
AcDbLine
 10
100.3010086225313
 20
113.9981267833554
 30
0.0
 11
98.40100862253132
 21
113.9981267833554
 31
0.0
  0
LINE
  5
15D
330
1F
100
AcDbEntity
  8
Sichtbare_Kanten_TC_020513_DIN_
  6
Continuous
 62
     7
100
AcDbLine
 10
98.40100862253132
 20
112.5981267833554
 30
0.0
 11
97.90100862253132
 21
112.5981267833554
 31
0.0
  0
LINE
  5
15E
330
1F
100
AcDbEntity
  8
Sichtbare_Kanten_TC_020513_DIN_
  6
Continuous
 62
     7
100
AcDbLine
 10
97.90100862253132
 20
113.9981267833554
 30
0.0
 11
98.40100862253132
 21
113.9981267833554
 31
0.0
  0
LINE
  5
15F
330
1F
100
AcDbEntity
  8
Sichtbare_Kanten_TC_020513_DIN_
  6
Continuous
 62
     7
100
AcDbLine
 10
97.90100862253132
 20
113.9981267833554
 30
0.0
 11
97.90100862253132
 21
112.5981267833554
 31
0.0
  0
LINE
  5
160
330
1F
100
AcDbEntity
  8
Sichtbare_Kanten_TC_020513_DIN_
  6
Continuous
 62
     7
100
AcDbLine
 10
132.6250529956543
 20
122.0014115596834
 30
0.0
 11
131.9985797820663
 21
123.3448877017374
 31
0.0
  0
LINE
  5
161
330
1F
100
AcDbEntity
  8
Sichtbare_Kanten_TC_020513_DIN_
  6
Continuous
 62
     7
100
AcDbLine
 10
133.8938838975063
 20
122.5930771261204
 30
0.0
 11
132.6250529956543
 21
122.0014115596834
 31
0.0
  0
LINE
  5
162
330
1F
100
AcDbEntity
  8
Sichtbare_Kanten_TC_020513_DIN_
  6
Continuous
 62
     7
100
AcDbLine
 10
133.2674106839183
 20
123.9365532681744
 30
0.0
 11
133.8938838975063
 21
122.5930771261204
 31
0.0
  0
LINE
  5
163
330
1F
100
AcDbEntity
  8
Sichtbare_Kanten_TC_020513_DIN_
  6
Continuous
 62
     7
100
AcDbLine
 10
129.4299841214193
 20
128.8532588719864
 30
0.0
 11
131.9985797820663
 21
123.3448877017374
 31
0.0
  0
LINE
  5
164
330
1F
100
AcDbEntity
  8
Sichtbare_Kanten_TC_020513_DIN_
  6
Continuous
 62
     7
100
AcDbLine
 10
133.2674106839183
 20
123.9365532681744
 30
0.0
 11
130.6988150232703
 21
129.4449244384234
 31
0.0
  0
LINE
  5
165
330
1F
100
AcDbEntity
  8
Sichtbare_Kanten_TC_020513_DIN_
  6
Continuous
 62
     7
100
AcDbLine
 10
131.9676459251213
 20
142.0294054662294
 30
0.0
 11
131.9676459251213
 21
141.4134043359484
 31
0.0
  0
LINE
  5
166
330
1F
100
AcDbEntity
  8
Sichtbare_Kanten_TC_020513_DIN_
  6
Continuous
 62
     7
100
AcDbLine
 10
131.9676459251213
 20
142.8134043359484
 30
0.0
 11
131.9676459251213
 21
142.0294054662294
 31
0.0
  0
LINE
  5
167
330
1F
100
AcDbEntity
  8
Sichtbare_Kanten_TC_020513_DIN_
  6
Continuous
 62
     7
100
AcDbLine
 10
129.2601445727073
 20
141.5967670333574
 30
0.0
 11
130.2077948594763
 21
141.5967670333574
 31
0.0
  0
LINE
  5
168
330
1F
100
AcDbEntity
  8
Sichtbare_Kanten_TC_020513_DIN_
  6
Continuous
 62
     7
100
AcDbLine
 10
130.5676459251213
 20
131.5967670333574
 30
0.0
 11
127.7676459251213
 21
131.5967670333574
 31
0.0
  0
LINE
  5
169
330
1F
100
AcDbEntity
  8
Sichtbare_Kanten_TC_020513_DIN_
  6
Continuous
 62
     7
100
AcDbLine
 10
130.5676459251213
 20
140.9209771531274
 30
0.0
 11
130.5676459251213
 21
131.5967670333574
 31
0.0
  0
LINE
  5
16A
330
1F
100
AcDbEntity
  8
Sichtbare_Kanten_TC_020513_DIN_
  6
Continuous
 62
     7
100
AcDbLine
 10
47.66149131055101
 20
129.1845899608704
 30
0.0
 11
47.10320222179149
 21
129.4449244384234
 31
0.0
  0
LINE
  5
16B
330
1F
100
AcDbEntity
  8
Sichtbare_Kanten_TC_020513_DIN_
  6
Continuous
 62
     7
100
AcDbLine
 10
48.37203312364284
 20
128.8532588719864
 30
0.0
 11
47.66149131055101
 21
129.1845899608704
 31
0.0
  0
LINE
  5
16C
330
1F
100
AcDbEntity
  8
Sichtbare_Kanten_TC_020513_DIN_
  6
Continuous
 62
     7
100
AcDbLine
 10
47.8503751728764
 20
130.0365900048604
 30
0.0
 11
48.63437131994022
 21
130.0365900048604
 31
0.0
  0
LINE
  5
16D
330
1F
100
AcDbEntity
  8
Sichtbare_Kanten_TC_020513_DIN_
  6
Continuous
 62
     7
100
AcDbLine
 10
47.23437131994024
 20
130.0365900048604
 30
0.0
 11
47.8503751728764
 21
130.0365900048604
 31
0.0
  0
LINE
  5
16E
330
1F
100
AcDbEntity
  8
Sichtbare_Kanten_TC_020513_DIN_
  6
Continuous
 62
     7
100
AcDbLine
 10
77.00100862253089
 20
114.0981267833554
 30
0.0
 11
77.00100862253089
 21
113.9981267833554
 31
0.0
  0
LINE
  5
16F
330
1F
100
AcDbEntity
  8
Sichtbare_Kanten_TC_020513_DIN_
  6
Continuous
 62
     7
100
AcDbLine
 10
79.90100862253092
 20
113.9981267833554
 30
0.0
 11
79.90100862253092
 21
114.0981267833554
 31
0.0
  0
LINE
  5
170
330
1F
100
AcDbEntity
  8
Sichtbare_Kanten_TC_020513_DIN_
  6
Continuous
 62
     7
100
AcDbLine
 10
45.8343713199402
 20
142.0294054662284
 30
0.0
 11
45.8343713199402
 21
142.8134043359484
 31
0.0
  0
LINE
  5
171
330
1F
100
AcDbEntity
  8
Sichtbare_Kanten_TC_020513_DIN_
  6
Continuous
 62
     7
100
AcDbLine
 10
45.8343713199402
 20
141.4134043359484
 30
0.0
 11
45.8343713199402
 21
142.0294054662284
 31
0.0
  0
LINE
  5
172
330
1F
100
AcDbEntity
  8
Sichtbare_Kanten_TC_020513_DIN_
  6
Continuous
 62
     7
100
AcDbLine
 10
47.59422238558528
 20
141.5967670333574
 30
0.0
 11
48.5418726723546
 21
141.5967670333574
 31
0.0
  0
LINE
  5
173
330
1F
100
AcDbEntity
  8
Sichtbare_Kanten_TC_020513_DIN_
  6
Continuous
 62
     7
100
AcDbLine
 10
47.23437131994024
 20
131.5967670333574
 30
0.0
 11
47.23437131994024
 21
140.9209771531274
 31
0.0
  0
LINE
  5
174
330
1F
100
AcDbEntity
  8
Sichtbare_Kanten_TC_020513_DIN_
  6
Continuous
 62
     7
100
AcDbLine
 10
50.03437131994019
 20
131.5967670333574
 30
0.0
 11
47.23437131994024
 21
131.5967670333574
 31
0.0
  0
LINE
  5
175
330
1F
100
AcDbEntity
  8
Sichtbare_Kanten_TC_020513_DIN_
  6
Continuous
 62
     7
100
AcDbLine
 10
246.7384600753443
 20
74.23578169836259
 30
0.0
 11
194.7384600753443
 21
74.23578169836259
 31
0.0
  0
LINE
  5
176
330
1F
100
AcDbEntity
  8
Sichtbare_Kanten_TC_020513_DIN_
  6
Continuous
 62
     7
100
AcDbLine
 10
208.4084600753443
 20
78.23578169836259
 30
0.0
 11
194.7384600753443
 21
78.23578169836259
 31
0.0
  0
LINE
  5
177
330
1F
100
AcDbEntity
  8
Sichtbare_Kanten_TC_020513_DIN_
  6
Continuous
 62
     7
100
AcDbLine
 10
246.7384600753443
 20
78.23578169836259
 30
0.0
 11
233.0684600753443
 21
78.23578169836259
 31
0.0
  0
LINE
  5
178
330
1F
100
AcDbEntity
  8
Sichtbare_Kanten_TC_020513_DIN_
  6
Continuous
 62
     7
100
AcDbLine
 10
194.7384600753443
 20
74.23578169836259
 30
0.0
 11
194.7384600753443
 21
78.23578169836259
 31
0.0
  0
LINE
  5
179
330
1F
100
AcDbEntity
  8
Sichtbare_Kanten_TC_020513_DIN_
  6
Continuous
 62
     7
100
AcDbLine
 10
246.7384600753443
 20
74.23578169836259
 30
0.0
 11
246.7384600753443
 21
78.23578169836259
 31
0.0
  0
LINE
  5
17A
330
1F
100
AcDbEntity
  8
Sichtbare_Kanten_TC_020513_DIN_
  6
Continuous
 62
     7
100
AcDbLine
 10
242.9884600753493
 20
78.23578169836259
 30
0.0
 11
242.9884600753493
 21
112.0191443957724
 31
0.0
  0
LINE
  5
17B
330
1F
100
AcDbEntity
  8
Sichtbare_Kanten_TC_020513_DIN_
  6
Continuous
 62
     7
100
AcDbLine
 10
242.9884600753493
 20
113.4191443957714
 30
0.0
 11
242.9884600753493
 21
127.2357816983624
 31
0.0
  0
LINE
  5
17C
330
1F
100
AcDbEntity
  8
Sichtbare_Kanten_TC_020513_DIN_
  6
Continuous
 62
     7
100
AcDbLine
 10
198.4884600753493
 20
127.2357816983624
 30
0.0
 11
204.4884600753483
 21
127.2357816983624
 31
0.0
  0
LINE
  5
17D
330
1F
100
AcDbEntity
  8
Sichtbare_Kanten_TC_020513_DIN_
  6
Continuous
 62
     7
100
AcDbLine
 10
198.4884600753493
 20
78.23578169836259
 30
0.0
 11
198.4884600753493
 21
112.0191443957724
 31
0.0
  0
LINE
  5
17E
330
1F
100
AcDbEntity
  8
Sichtbare_Kanten_TC_020513_DIN_
  6
Continuous
 62
     7
100
AcDbLine
 10
198.4884600753493
 20
113.4191443957714
 30
0.0
 11
198.4884600753493
 21
127.2357816983624
 31
0.0
  0
LINE
  5
17F
330
1F
100
AcDbEntity
  8
Sichtbare_Kanten_TC_020513_DIN_
  6
Continuous
 62
     7
100
AcDbLine
 10
236.9884600753483
 20
127.2357816983624
 30
0.0
 11
235.9480365623513
 21
127.2357816983624
 31
0.0
  0
LINE
  5
180
330
1F
100
AcDbEntity
  8
Sichtbare_Kanten_TC_020513_DIN_
  6
Continuous
 62
     7
100
AcDbLine
 10
205.5288835883443
 20
127.2357816983624
 30
0.0
 11
204.4884600753483
 21
127.2357816983624
 31
0.0
  0
LINE
  5
181
330
1F
100
AcDbEntity
  8
Sichtbare_Kanten_TC_020513_DIN_
  6
Continuous
 62
     7
100
AcDbLine
 10
236.9884600753483
 20
127.2357816983624
 30
0.0
 11
242.9884600753493
 21
127.2357816983624
 31
0.0
  0
LINE
  5
182
330
1F
100
AcDbEntity
  8
Sichtbare_Kanten_TC_020513_DIN_
  6
Continuous
 62
     7
100
AcDbLine
 10
233.0684600753443
 20
90.8157816983624
 30
0.0
 11
233.0684600753443
 21
78.23578169836259
 31
0.0
  0
LINE
  5
183
330
1F
100
AcDbEntity
  8
Sichtbare_Kanten_TC_020513_DIN_
  6
Continuous
 62
     7
100
AcDbLine
 10
208.4084600753443
 20
78.23578169836259
 30
0.0
 11
208.4084600753443
 21
90.8157816983624
 31
0.0
  0
LINE
  5
184
330
1F
100
AcDbEntity
  8
Sichtbare_Kanten_TC_020513_DIN_
  6
Continuous
 62
     7
100
AcDbLine
 10
198.6884600753493
 20
131.2357816983624
 30
0.0
 11
198.6884600753493
 21
127.2357816983624
 31
0.0
  0
LINE
  5
185
330
1F
100
AcDbEntity
  8
Sichtbare_Kanten_TC_020513_DIN_
  6
Continuous
 62
     7
100
AcDbLine
 10
204.4884600753483
 20
131.2357816983624
 30
0.0
 11
198.6884600753493
 21
131.2357816983624
 31
0.0
  0
LINE
  5
186
330
1F
100
AcDbEntity
  8
Sichtbare_Kanten_TC_020513_DIN_
  6
Continuous
 62
     7
100
AcDbLine
 10
204.4884600753483
 20
131.2357816983624
 30
0.0
 11
204.4936548539253
 21
131.2357816983624
 31
0.0
  0
LINE
  5
187
330
1F
100
AcDbEntity
  8
Sichtbare_Kanten_TC_020513_DIN_
  6
Continuous
 62
     7
100
AcDbLine
 10
236.9832652967713
 20
131.2357816983624
 30
0.0
 11
236.9884600753483
 21
131.2357816983624
 31
0.0
  0
LINE
  5
188
330
1F
100
AcDbEntity
  8
Sichtbare_Kanten_TC_020513_DIN_
  6
Continuous
 62
     7
100
AcDbLine
 10
242.7884600753493
 20
131.2357816983624
 30
0.0
 11
242.7884600753493
 21
127.2357816983624
 31
0.0
  0
LINE
  5
189
330
1F
100
AcDbEntity
  8
Sichtbare_Kanten_TC_020513_DIN_
  6
Continuous
 62
     7
100
AcDbLine
 10
242.7884600753493
 20
131.2357816983624
 30
0.0
 11
236.9884600753483
 21
131.2357816983624
 31
0.0
  0
LINE
  5
18A
330
1F
100
AcDbEntity
  8
Sichtbare_Kanten_TC_020513_DIN_
  6
Continuous
 62
     7
100
AcDbLine
 10
243.0884600753543
 20
121.7357816983624
 30
0.0
 11
243.0884600753543
 21
126.7357816983624
 31
0.0
  0
LINE
  5
18B
330
1F
100
AcDbEntity
  8
Sichtbare_Kanten_TC_020513_DIN_
  6
Continuous
 62
     7
100
AcDbLine
 10
247.8384600753543
 20
120.2357816983624
 30
0.0
 11
247.8384600753543
 21
128.2357816983624
 31
0.0
  0
LINE
  5
18C
330
1F
100
AcDbEntity
  8
Sichtbare_Kanten_TC_020513_DIN_
  6
Continuous
 62
     7
100
AcDbLine
 10
249.2384600753543
 20
120.2357816983624
 30
0.0
 11
249.2384600753543
 21
128.2357816983624
 31
0.0
  0
LINE
  5
18D
330
1F
100
AcDbEntity
  8
Sichtbare_Kanten_TC_020513_DIN_
  6
Continuous
 62
     7
100
AcDbLine
 10
198.3884600753543
 20
121.7357816983624
 30
0.0
 11
198.3884600753543
 21
126.7357816983624
 31
0.0
  0
LINE
  5
18E
330
1F
100
AcDbEntity
  8
Sichtbare_Kanten_TC_020513_DIN_
  6
Continuous
 62
     7
100
AcDbLine
 10
193.6384600753543
 20
120.2357816983624
 30
0.0
 11
193.6384600753543
 21
128.2357816983624
 31
0.0
  0
LINE
  5
18F
330
1F
100
AcDbEntity
  8
Sichtbare_Kanten_TC_020513_DIN_
  6
Continuous
 62
     7
100
AcDbLine
 10
192.2384600753543
 20
120.2357816983624
 30
0.0
 11
192.2384600753543
 21
128.2357816983624
 31
0.0
  0
LINE
  5
190
330
1F
100
AcDbEntity
  8
Sichtbare_Kanten_TC_020513_DIN_
  6
Continuous
 62
     7
100
AcDbLine
 10
242.9884600753543
 20
125.7357816983624
 30
0.0
 11
243.0884600753543
 21
125.7357816983624
 31
0.0
  0
LINE
  5
191
330
1F
100
AcDbEntity
  8
Sichtbare_Kanten_TC_020513_DIN_
  6
Continuous
 62
     7
100
AcDbLine
 10
242.9884600753543
 20
122.7357816983624
 30
0.0
 11
243.0884600753543
 21
122.7357816983624
 31
0.0
  0
LINE
  5
192
330
1F
100
AcDbEntity
  8
Sichtbare_Kanten_TC_020513_DIN_
  6
Continuous
 62
     7
100
AcDbLine
 10
247.2384600753543
 20
126.7357816983624
 30
0.0
 11
247.8384600753543
 21
126.7357816983624
 31
0.0
  0
LINE
  5
193
330
1F
100
AcDbEntity
  8
Sichtbare_Kanten_TC_020513_DIN_
  6
Continuous
 62
     7
100
AcDbLine
 10
247.2384600753543
 20
121.7357816983624
 30
0.0
 11
247.8384600753543
 21
121.7357816983624
 31
0.0
  0
LINE
  5
194
330
1F
100
AcDbEntity
  8
Sichtbare_Kanten_TC_020513_DIN_
  6
Continuous
 62
     7
100
AcDbLine
 10
243.0884600753543
 20
126.7357816983624
 30
0.0
 11
243.1384600753543
 21
126.7357816983624
 31
0.0
  0
LINE
  5
195
330
1F
100
AcDbEntity
  8
Sichtbare_Kanten_TC_020513_DIN_
  6
Continuous
 62
     7
100
AcDbLine
 10
244.5384600753543
 20
126.7357816983624
 30
0.0
 11
245.8384600753543
 21
126.7357816983624
 31
0.0
  0
LINE
  5
196
330
1F
100
AcDbEntity
  8
Sichtbare_Kanten_TC_020513_DIN_
  6
Continuous
 62
     7
100
AcDbLine
 10
243.0884600753543
 20
121.7357816983624
 30
0.0
 11
243.1384600753543
 21
121.7357816983624
 31
0.0
  0
LINE
  5
197
330
1F
100
AcDbEntity
  8
Sichtbare_Kanten_TC_020513_DIN_
  6
Continuous
 62
     7
100
AcDbLine
 10
244.5384600753543
 20
121.7357816983624
 30
0.0
 11
245.8384600753543
 21
121.7357816983624
 31
0.0
  0
LINE
  5
198
330
1F
100
AcDbEntity
  8
Sichtbare_Kanten_TC_020513_DIN_
  6
Continuous
 62
     7
100
AcDbLine
 10
198.3884600753543
 20
125.7357816983624
 30
0.0
 11
198.4884600753543
 21
125.7357816983624
 31
0.0
  0
LINE
  5
199
330
1F
100
AcDbEntity
  8
Sichtbare_Kanten_TC_020513_DIN_
  6
Continuous
 62
     7
100
AcDbLine
 10
198.3884600753543
 20
122.7357816983624
 30
0.0
 11
198.4884600753543
 21
122.7357816983624
 31
0.0
  0
LINE
  5
19A
330
1F
100
AcDbEntity
  8
Sichtbare_Kanten_TC_020513_DIN_
  6
Continuous
 62
     7
100
AcDbLine
 10
193.6384600753543
 20
126.7357816983624
 30
0.0
 11
194.2384600753543
 21
126.7357816983624
 31
0.0
  0
LINE
  5
19B
330
1F
100
AcDbEntity
  8
Sichtbare_Kanten_TC_020513_DIN_
  6
Continuous
 62
     7
100
AcDbLine
 10
193.6384600753543
 20
121.7357816983624
 30
0.0
 11
194.2384600753543
 21
121.7357816983624
 31
0.0
  0
LINE
  5
19C
330
1F
100
AcDbEntity
  8
Sichtbare_Kanten_TC_020513_DIN_
  6
Continuous
 62
     7
100
AcDbLine
 10
195.6384600753543
 20
126.7357816983624
 30
0.0
 11
196.9384600753543
 21
126.7357816983624
 31
0.0
  0
LINE
  5
19D
330
1F
100
AcDbEntity
  8
Sichtbare_Kanten_TC_020513_DIN_
  6
Continuous
 62
     7
100
AcDbLine
 10
198.3384600753543
 20
126.7357816983624
 30
0.0
 11
198.3884600753543
 21
126.7357816983624
 31
0.0
  0
LINE
  5
19E
330
1F
100
AcDbEntity
  8
Sichtbare_Kanten_TC_020513_DIN_
  6
Continuous
 62
     7
100
AcDbLine
 10
195.6384600753543
 20
121.7357816983624
 30
0.0
 11
196.9384600753543
 21
121.7357816983624
 31
0.0
  0
LINE
  5
19F
330
1F
100
AcDbEntity
  8
Sichtbare_Kanten_TC_020513_DIN_
  6
Continuous
 62
     7
100
AcDbLine
 10
198.3384600753543
 20
121.7357816983624
 30
0.0
 11
198.3884600753543
 21
121.7357816983624
 31
0.0
  0
LINE
  5
1A0
330
1F
100
AcDbEntity
  8
Sichtbare_Kanten_TC_020513_DIN_
  6
Continuous
 62
     7
100
AcDbLine
 10
206.9550973779373
 20
112.0191443957724
 30
0.0
 11
206.9550973779373
 21
111.9191443957714
 31
0.0
  0
LINE
  5
1A1
330
1F
100
AcDbEntity
  8
Sichtbare_Kanten_TC_020513_DIN_
  6
Continuous
 62
     7
100
AcDbLine
 10
210.9550973779373
 20
111.9191443957714
 30
0.0
 11
210.9550973779373
 21
112.0191443957724
 31
0.0
  0
LINE
  5
1A2
330
1F
100
AcDbEntity
  8
Sichtbare_Kanten_TC_020513_DIN_
  6
Continuous
 62
     7
100
AcDbLine
 10
230.5218227727564
 20
112.0191443957724
 30
0.0
 11
230.5218227727564
 21
111.9191443957714
 31
0.0
  0
LINE
  5
1A3
330
1F
100
AcDbEntity
  8
Sichtbare_Kanten_TC_020513_DIN_
  6
Continuous
 62
     7
100
AcDbLine
 10
234.5218227727564
 20
111.9191443957714
 30
0.0
 11
234.5218227727564
 21
112.0191443957724
 31
0.0
  0
LINE
  5
1A4
330
1F
100
AcDbEntity
  8
Sichtbare_Kanten_TC_020513_DIN_
  6
Continuous
 62
     7
100
AcDbLine
 10
195.6384600753523
 20
112.3942732651754
 30
0.0
 11
195.6384600753553
 21
109.5018412737564
 31
0.0
  0
LINE
  5
1A5
330
1F
100
AcDbEntity
  8
Sichtbare_Kanten_TC_020513_DIN_
  6
Continuous
 62
     7
100
AcDbLine
 10
195.6384600753543
 20
131.2357816983624
 30
0.0
 11
195.6384600753533
 21
130.5277574119414
 31
0.0
  0
LINE
  5
1A6
330
1F
100
AcDbEntity
  8
Sichtbare_Kanten_TC_020513_DIN_
  6
Continuous
 62
     7
100
AcDbLine
 10
195.6384600753533
 20
130.5277574119414
 30
0.0
 11
195.6384600753513
 21
125.4141939482704
 31
0.0
  0
LINE
  5
1A7
330
1F
100
AcDbEntity
  8
Sichtbare_Kanten_TC_020513_DIN_
  6
Continuous
 62
     7
100
AcDbLine
 10
195.6384600753513
 20
125.2357816983624
 30
0.0
 11
195.6384600753513
 21
125.4141939482704
 31
0.0
  0
LINE
  5
1A8
330
1F
100
AcDbEntity
  8
Sichtbare_Kanten_TC_020513_DIN_
  6
Continuous
 62
     7
100
AcDbLine
 10
195.6384600753513
 20
125.2357816983624
 30
0.0
 11
195.6384600753453
 21
117.2357816983624
 31
0.0
  0
LINE
  5
1A9
330
1F
100
AcDbEntity
  8
Sichtbare_Kanten_TC_020513_DIN_
  6
Continuous
 62
     7
100
AcDbLine
 10
195.6384600753453
 20
114.8191443957714
 30
0.0
 11
195.6384600753453
 21
117.2357816983624
 31
0.0
  0
LINE
  5
1AA
330
1F
100
AcDbEntity
  8
Sichtbare_Kanten_TC_020513_DIN_
  6
Continuous
 62
     7
100
AcDbLine
 10
194.2384600753452
 20
114.8191443957714
 30
0.0
 11
194.2384600753452
 21
117.2357816983624
 31
0.0
  0
LINE
  5
1AB
330
1F
100
AcDbEntity
  8
Sichtbare_Kanten_TC_020513_DIN_
  6
Continuous
 62
     7
100
AcDbLine
 10
194.2384600753473
 20
125.2357816983624
 30
0.0
 11
194.2384600753452
 21
117.2357816983624
 31
0.0
  0
LINE
  5
1AC
330
1F
100
AcDbEntity
  8
Sichtbare_Kanten_TC_020513_DIN_
  6
Continuous
 62
     7
100
AcDbLine
 10
194.2384600753473
 20
125.2357816983624
 30
0.0
 11
194.2384600753513
 21
125.4141939482704
 31
0.0
  0
LINE
  5
1AD
330
1F
100
AcDbEntity
  8
Sichtbare_Kanten_TC_020513_DIN_
  6
Continuous
 62
     7
100
AcDbLine
 10
194.2384600753533
 20
130.5277574119414
 30
0.0
 11
194.2384600753513
 21
125.4141939482704
 31
0.0
  0
LINE
  5
1AE
330
1F
100
AcDbEntity
  8
Sichtbare_Kanten_TC_020513_DIN_
  6
Continuous
 62
     7
100
AcDbLine
 10
194.2384600753543
 20
131.2357816983624
 30
0.0
 11
194.2384600753533
 21
130.5277574119414
 31
0.0
  0
LINE
  5
1AF
330
1F
100
AcDbEntity
  8
Sichtbare_Kanten_TC_020513_DIN_
  6
Continuous
 62
     7
100
AcDbLine
 10
194.2384600753452
 20
114.8191443957714
 30
0.0
 11
194.2384600753543
 21
109.5018412737564
 31
0.0
  0
LINE
  5
1B0
330
1F
100
AcDbEntity
  8
Sichtbare_Kanten_TC_020513_DIN_
  6
Continuous
 62
     7
100
AcDbLine
 10
194.2384600753473
 20
125.2357816983624
 30
0.0
 11
195.6384600753513
 21
125.2357816983624
 31
0.0
  0
LINE
  5
1B1
330
1F
100
AcDbEntity
  8
Sichtbare_Kanten_TC_020513_DIN_
  6
Continuous
 62
     7
100
AcDbLine
 10
200.9550973779353
 20
112.0191443957724
 30
0.0
 11
197.0384600753453
 21
112.0191443957714
 31
0.0
  0
LINE
  5
1B2
330
1F
100
AcDbEntity
  8
Sichtbare_Kanten_TC_020513_DIN_
  6
Continuous
 62
     7
100
AcDbLine
 10
200.9550973779353
 20
113.4191443957724
 30
0.0
 11
197.0384600753453
 21
113.4191443957714
 31
0.0
  0
LINE
  5
1B3
330
1F
100
AcDbEntity
  8
Sichtbare_Kanten_TC_020513_DIN_
  6
Continuous
 62
     7
100
AcDbLine
 10
201.7466422028674
 20
113.4191443957714
 30
0.0
 11
200.9550973779353
 21
113.4191443957724
 31
0.0
  0
LINE
  5
1B4
330
1F
100
AcDbEntity
  8
Sichtbare_Kanten_TC_020513_DIN_
  6
Continuous
 62
     7
100
AcDbLine
 10
201.7466422028674
 20
112.0191443957724
 30
0.0
 11
200.9550973779353
 21
112.0191443957724
 31
0.0
  0
LINE
  5
1B5
330
1F
100
AcDbEntity
  8
Sichtbare_Kanten_TC_020513_DIN_
  6
Continuous
 62
     7
100
AcDbLine
 10
201.7466422028674
 20
113.4191443957714
 30
0.0
 11
208.0790008023222
 21
113.4191443957714
 31
0.0
  0
LINE
  5
1B6
330
1F
100
AcDbEntity
  8
Sichtbare_Kanten_TC_020513_DIN_
  6
Continuous
 62
     7
100
AcDbLine
 10
201.7466422028674
 20
112.0191443957724
 30
0.0
 11
208.0790008023222
 21
112.0191443957714
 31
0.0
  0
LINE
  5
1B7
330
1F
100
AcDbEntity
  8
Sichtbare_Kanten_TC_020513_DIN_
  6
Continuous
 62
     7
100
AcDbLine
 10
206.9550973779373
 20
111.0814894807644
 30
0.0
 11
210.4550973779373
 21
111.0814894807644
 31
0.0
  0
LINE
  5
1B8
330
1F
100
AcDbEntity
  8
Sichtbare_Kanten_TC_020513_DIN_
  6
Continuous
 62
     7
100
AcDbLine
 10
210.9550973779373
 20
111.5814894807644
 30
0.0
 11
210.9550973779373
 21
111.9191443957714
 31
0.0
  0
LINE
  5
1B9
330
1F
100
AcDbEntity
  8
Sichtbare_Kanten_TC_020513_DIN_
  6
Continuous
 62
     7
100
AcDbLine
 10
206.9550973779373
 20
111.9191443957714
 30
0.0
 11
206.9550973779373
 21
111.0814894807644
 31
0.0
  0
LINE
  5
1BA
330
1F
100
AcDbEntity
  8
Sichtbare_Kanten_TC_020513_DIN_
  6
Continuous
 62
     7
100
AcDbLine
 10
240.5218227727543
 20
112.0191443957724
 30
0.0
 11
244.4384600753453
 21
112.0191443957724
 31
0.0
  0
LINE
  5
1BB
330
1F
100
AcDbEntity
  8
Sichtbare_Kanten_TC_020513_DIN_
  6
Continuous
 62
     7
100
AcDbLine
 10
239.7302779478222
 20
112.0191443957724
 30
0.0
 11
240.5218227727543
 21
112.0191443957724
 31
0.0
  0
LINE
  5
1BC
330
1F
100
AcDbEntity
  8
Sichtbare_Kanten_TC_020513_DIN_
  6
Continuous
 62
     7
100
AcDbLine
 10
239.7302779478222
 20
112.0191443957724
 30
0.0
 11
233.3979193483653
 21
112.0191443957714
 31
0.0
  0
LINE
  5
1BD
330
1F
100
AcDbEntity
  8
Sichtbare_Kanten_TC_020513_DIN_
  6
Continuous
 62
     7
100
AcDbLine
 10
233.3979193483653
 20
112.0191443957714
 30
0.0
 11
208.0790008023222
 21
112.0191443957714
 31
0.0
  0
LINE
  5
1BE
330
1F
100
AcDbEntity
  8
Sichtbare_Kanten_TC_020513_DIN_
  6
Continuous
 62
     7
100
AcDbLine
 10
234.5218227727564
 20
111.0814894807644
 30
0.0
 11
231.0218227727564
 21
111.0814894807644
 31
0.0
  0
LINE
  5
1BF
330
1F
100
AcDbEntity
  8
Sichtbare_Kanten_TC_020513_DIN_
  6
Continuous
 62
     7
100
AcDbLine
 10
230.5218227727564
 20
111.5814894807644
 30
0.0
 11
230.5218227727564
 21
111.9191443957714
 31
0.0
  0
LINE
  5
1C0
330
1F
100
AcDbEntity
  8
Sichtbare_Kanten_TC_020513_DIN_
  6
Continuous
 62
     7
100
AcDbLine
 10
234.5218227727564
 20
111.9191443957714
 30
0.0
 11
234.5218227727564
 21
111.0814894807644
 31
0.0
  0
LINE
  5
1C1
330
1F
100
AcDbEntity
  8
Sichtbare_Kanten_TC_020513_DIN_
  6
Continuous
 62
     7
100
AcDbLine
 10
233.3979193483653
 20
113.4191443957724
 30
0.0
 11
208.0790008023222
 21
113.4191443957714
 31
0.0
  0
LINE
  5
1C2
330
1F
100
AcDbEntity
  8
Sichtbare_Kanten_TC_020513_DIN_
  6
Continuous
 62
     7
100
AcDbLine
 10
239.7302779478222
 20
113.4191443957714
 30
0.0
 11
233.3979193483653
 21
113.4191443957724
 31
0.0
  0
LINE
  5
1C3
330
1F
100
AcDbEntity
  8
Sichtbare_Kanten_TC_020513_DIN_
  6
Continuous
 62
     7
100
AcDbLine
 10
239.7302779478222
 20
113.4191443957714
 30
0.0
 11
240.5218227727543
 21
113.4191443957714
 31
0.0
  0
LINE
  5
1C4
330
1F
100
AcDbEntity
  8
Sichtbare_Kanten_TC_020513_DIN_
  6
Continuous
 62
     7
100
AcDbLine
 10
240.5218227727543
 20
113.4191443957714
 30
0.0
 11
244.4384600753453
 21
113.4191443957714
 31
0.0
  0
LINE
  5
1C5
330
1F
100
AcDbEntity
  8
Sichtbare_Kanten_TC_020513_DIN_
  6
Continuous
 62
     7
100
AcDbLine
 10
245.8384600753453
 20
114.8191443957714
 30
0.0
 11
245.8384600753453
 21
117.2357816983624
 31
0.0
  0
LINE
  5
1C6
330
1F
100
AcDbEntity
  8
Sichtbare_Kanten_TC_020513_DIN_
  6
Continuous
 62
     7
100
AcDbLine
 10
245.8384600753473
 20
125.2357816983624
 30
0.0
 11
245.8384600753453
 21
117.2357816983624
 31
0.0
  0
LINE
  5
1C7
330
1F
100
AcDbEntity
  8
Sichtbare_Kanten_TC_020513_DIN_
  6
Continuous
 62
     7
100
AcDbLine
 10
245.8384600753473
 20
125.2357816983624
 30
0.0
 11
245.8384600753513
 21
125.4141939482704
 31
0.0
  0
LINE
  5
1C8
330
1F
100
AcDbEntity
  8
Sichtbare_Kanten_TC_020513_DIN_
  6
Continuous
 62
     7
100
AcDbLine
 10
245.8384600753533
 20
130.5277574119414
 30
0.0
 11
245.8384600753513
 21
125.4141939482704
 31
0.0
  0
LINE
  5
1C9
330
1F
100
AcDbEntity
  8
Sichtbare_Kanten_TC_020513_DIN_
  6
Continuous
 62
     7
100
AcDbLine
 10
245.8384600753543
 20
131.2357816983624
 30
0.0
 11
245.8384600753533
 21
130.5277574119414
 31
0.0
  0
LINE
  5
1CA
330
1F
100
AcDbEntity
  8
Sichtbare_Kanten_TC_020513_DIN_
  6
Continuous
 62
     7
100
AcDbLine
 10
245.8384600753523
 20
112.3942732651754
 30
0.0
 11
245.8384600753543
 21
109.5018412737564
 31
0.0
  0
LINE
  5
1CB
330
1F
100
AcDbEntity
  8
Sichtbare_Kanten_TC_020513_DIN_
  6
Continuous
 62
     7
100
AcDbLine
 10
247.2384600753513
 20
114.8191443957714
 30
0.0
 11
247.2384600753553
 21
109.5018412737564
 31
0.0
  0
LINE
  5
1CC
330
1F
100
AcDbEntity
  8
Sichtbare_Kanten_TC_020513_DIN_
  6
Continuous
 62
     7
100
AcDbLine
 10
247.2384600753543
 20
131.2357816983624
 30
0.0
 11
247.2384600753533
 21
130.5277574119414
 31
0.0
  0
LINE
  5
1CD
330
1F
100
AcDbEntity
  8
Sichtbare_Kanten_TC_020513_DIN_
  6
Continuous
 62
     7
100
AcDbLine
 10
247.2384600753533
 20
130.5277574119414
 30
0.0
 11
247.2384600753513
 21
125.4141939482704
 31
0.0
  0
LINE
  5
1CE
330
1F
100
AcDbEntity
  8
Sichtbare_Kanten_TC_020513_DIN_
  6
Continuous
 62
     7
100
AcDbLine
 10
247.2384600753513
 20
125.2357816983624
 30
0.0
 11
247.2384600753513
 21
125.4141939482704
 31
0.0
  0
LINE
  5
1CF
330
1F
100
AcDbEntity
  8
Sichtbare_Kanten_TC_020513_DIN_
  6
Continuous
 62
     7
100
AcDbLine
 10
247.2384600753513
 20
125.2357816983624
 30
0.0
 11
247.2384600753452
 21
117.2357816983624
 31
0.0
  0
LINE
  5
1D0
330
1F
100
AcDbEntity
  8
Sichtbare_Kanten_TC_020513_DIN_
  6
Continuous
 62
     7
100
AcDbLine
 10
247.2384600753513
 20
114.8191443957714
 30
0.0
 11
247.2384600753452
 21
117.2357816983624
 31
0.0
  0
LINE
  5
1D1
330
1F
100
AcDbEntity
  8
Sichtbare_Kanten_TC_020513_DIN_
  6
Continuous
 62
     7
100
AcDbLine
 10
247.2384600753513
 20
125.2357816983624
 30
0.0
 11
245.8384600753473
 21
125.2357816983624
 31
0.0
  0
LINE
  5
1D2
330
1F
100
AcDbEntity
  8
Sichtbare_Kanten_TC_020513_DIN_
  6
Continuous
 62
     7
100
AcDbLine
 10
243.1384600753543
 20
114.0981267833554
 30
0.0
 11
243.1384600753543
 21
114.2357816983624
 31
0.0
  0
LINE
  5
1D3
330
1F
100
AcDbEntity
  8
Sichtbare_Kanten_TC_020513_DIN_
  6
Continuous
 62
     7
100
AcDbLine
 10
243.1384600753513
 20
122.4513800136334
 30
0.0
 11
243.1384600753543
 21
114.2357816983624
 31
0.0
  0
LINE
  5
1D4
330
1F
100
AcDbEntity
  8
Sichtbare_Kanten_TC_020513_DIN_
  6
Continuous
 62
     7
100
AcDbLine
 10
243.1384600753513
 20
122.4513800136334
 30
0.0
 11
243.1384600753513
 21
127.2793595697364
 31
0.0
  0
LINE
  5
1D5
330
1F
100
AcDbEntity
  8
Sichtbare_Kanten_TC_020513_DIN_
  6
Continuous
 62
     7
100
AcDbLine
 10
243.1384600753513
 20
127.2793595697364
 30
0.0
 11
243.1384600753513
 21
127.6279314614554
 31
0.0
  0
LINE
  5
1D6
330
1F
100
AcDbEntity
  8
Sichtbare_Kanten_TC_020513_DIN_
  6
Continuous
 62
     7
100
AcDbLine
 10
243.1384600753513
 20
127.6279314614554
 30
0.0
 11
243.1384600753503
 21
131.5967670333574
 31
0.0
  0
LINE
  5
1D7
330
1F
100
AcDbEntity
  8
Sichtbare_Kanten_TC_020513_DIN_
  6
Continuous
 62
     7
100
AcDbLine
 10
243.1384600753463
 20
142.0320232825544
 30
0.0
 11
243.1384600753473
 21
144.0792429671524
 31
0.0
  0
LINE
  5
1D8
330
1F
100
AcDbEntity
  8
Sichtbare_Kanten_TC_020513_DIN_
  6
Continuous
 62
     7
100
AcDbLine
 10
243.1384600753533
 20
149.2357816983624
 30
0.0
 11
243.1384600753473
 21
144.0792429671524
 31
0.0
  0
LINE
  5
1D9
330
1F
100
AcDbEntity
  8
Sichtbare_Kanten_TC_020513_DIN_
  6
Continuous
 62
     7
100
AcDbLine
 10
244.5384600753473
 20
144.0792429671524
 30
0.0
 11
244.5384600753463
 21
142.0320232825544
 31
0.0
  0
LINE
  5
1DA
330
1F
100
AcDbEntity
  8
Sichtbare_Kanten_TC_020513_DIN_
  6
Continuous
 62
     7
100
AcDbLine
 10
244.5384600753473
 20
144.0792429671524
 30
0.0
 11
244.5384600753533
 21
149.2357816983624
 31
0.0
  0
LINE
  5
1DB
330
1F
100
AcDbEntity
  8
Sichtbare_Kanten_TC_020513_DIN_
  6
Continuous
 62
     7
100
AcDbLine
 10
244.5384600753503
 20
131.5967670333574
 30
0.0
 11
244.5384600753513
 21
127.6279314614554
 31
0.0
  0
LINE
  5
1DC
330
1F
100
AcDbEntity
  8
Sichtbare_Kanten_TC_020513_DIN_
  6
Continuous
 62
     7
100
AcDbLine
 10
244.5384600753513
 20
127.6279314614554
 30
0.0
 11
244.5384600753513
 21
127.2793595697364
 31
0.0
  0
LINE
  5
1DD
330
1F
100
AcDbEntity
  8
Sichtbare_Kanten_TC_020513_DIN_
  6
Continuous
 62
     7
100
AcDbLine
 10
244.5384600753513
 20
127.2793595697364
 30
0.0
 11
244.5384600753513
 21
122.4513800136334
 31
0.0
  0
LINE
  5
1DE
330
1F
100
AcDbEntity
  8
Sichtbare_Kanten_TC_020513_DIN_
  6
Continuous
 62
     7
100
AcDbLine
 10
244.5384600753543
 20
114.2357816983624
 30
0.0
 11
244.5384600753513
 21
122.4513800136334
 31
0.0
  0
LINE
  5
1DF
330
1F
100
AcDbEntity
  8
Sichtbare_Kanten_TC_020513_DIN_
  6
Continuous
 62
     7
100
AcDbLine
 10
244.5384600753543
 20
114.2357816983624
 30
0.0
 11
244.5384600753543
 21
114.0981267833554
 31
0.0
  0
LINE
  5
1E0
330
1F
100
AcDbEntity
  8
Sichtbare_Kanten_TC_020513_DIN_
  6
Continuous
 62
     7
100
AcDbLine
 10
244.5384600753543
 20
114.2357816983624
 30
0.0
 11
243.1384600753543
 21
114.2357816983624
 31
0.0
  0
LINE
  5
1E1
330
1F
100
AcDbEntity
  8
Sichtbare_Kanten_TC_020513_DIN_
  6
Continuous
 62
     7
100
AcDbLine
 10
244.5384600753533
 20
149.2357816983624
 30
0.0
 11
243.1384600753533
 21
149.2357816983624
 31
0.0
  0
LINE
  5
1E2
330
1F
100
AcDbEntity
  8
Sichtbare_Kanten_TC_020513_DIN_
  6
Continuous
 62
     7
100
AcDbLine
 10
240.1610081940902
 20
139.5967670333574
 30
0.0
 11
237.2718227727552
 21
139.5967670333574
 31
0.0
  0
LINE
  5
1E3
330
1F
100
AcDbEntity
  8
Sichtbare_Kanten_TC_020513_DIN_
  6
Continuous
 62
     7
100
AcDbLine
 10
236.6619428509253
 20
130.0365900048604
 30
0.0
 11
237.0303413161823
 21
131.4114717946334
 31
0.0
  0
LINE
  5
1E4
330
1F
100
AcDbEntity
  8
Sichtbare_Kanten_TC_020513_DIN_
  6
Continuous
 62
     7
100
AcDbLine
 10
237.2718227727552
 20
131.5967670333574
 30
0.0
 11
241.7384600753452
 21
131.5967670333574
 31
0.0
  0
LINE
  5
1E5
330
1F
100
AcDbEntity
  8
Sichtbare_Kanten_TC_020513_DIN_
  6
Continuous
 62
     7
100
AcDbLine
 10
241.7384600753452
 20
140.9209771531274
 30
0.0
 11
240.9270526372093
 21
139.9539794236714
 31
0.0
  0
LINE
  5
1E6
330
1F
100
AcDbEntity
  8
Sichtbare_Kanten_TC_020513_DIN_
  6
Continuous
 62
     7
100
AcDbLine
 10
233.8385380430934
 20
142.8134043359484
 30
0.0
 11
231.9066863905153
 21
142.8134043359484
 31
0.0
  0
LINE
  5
1E7
330
1F
100
AcDbEntity
  8
Sichtbare_Kanten_TC_020513_DIN_
  6
Continuous
 62
     7
100
AcDbLine
 10
231.9066863905153
 20
141.4134043359484
 30
0.0
 11
233.8385380430934
 21
141.4134043359484
 31
0.0
  0
LINE
  5
1E8
330
1F
100
AcDbEntity
  8
Sichtbare_Kanten_TC_020513_DIN_
  6
Continuous
 62
     7
100
AcDbLine
 10
233.8385380430934
 20
142.8134043359484
 30
0.0
 11
235.1606731498272
 21
142.8134043359484
 31
0.0
  0
LINE
  5
1E9
330
1F
100
AcDbEntity
  8
Sichtbare_Kanten_TC_020513_DIN_
  6
Continuous
 62
     7
100
AcDbLine
 10
235.1606731498272
 20
141.4134043359484
 30
0.0
 11
233.8385380430934
 21
141.4134043359484
 31
0.0
  0
LINE
  5
1EA
330
1F
100
AcDbEntity
  8
Sichtbare_Kanten_TC_020513_DIN_
  6
Continuous
 62
     7
100
AcDbLine
 10
244.6384600753543
 20
113.9981267833554
 30
0.0
 11
245.5724486467703
 21
113.9981267833554
 31
0.0
  0
LINE
  5
1EB
330
1F
100
AcDbEntity
  8
Sichtbare_Kanten_TC_020513_DIN_
  6
Continuous
 62
     7
100
AcDbLine
 10
247.2384600753543
 20
112.5981267833554
 30
0.0
 11
247.5761149903623
 21
112.5981267833554
 31
0.0
  0
LINE
  5
1EC
330
1F
100
AcDbEntity
  8
Sichtbare_Kanten_TC_020513_DIN_
  6
Continuous
 62
     7
100
AcDbLine
 10
247.5761149903623
 20
113.9981267833554
 30
0.0
 11
247.5761149903623
 21
112.5981267833554
 31
0.0
  0
LINE
  5
1ED
330
1F
100
AcDbEntity
  8
Sichtbare_Kanten_TC_020513_DIN_
  6
Continuous
 62
     7
100
AcDbLine
 10
247.5761149903623
 20
113.9981267833554
 30
0.0
 11
247.2384600753543
 21
113.9981267833554
 31
0.0
  0
LINE
  5
1EE
330
1F
100
AcDbEntity
  8
Sichtbare_Kanten_TC_020513_DIN_
  6
Continuous
 62
     7
100
AcDbLine
 10
234.7976967780683
 20
123.9365532681744
 30
0.0
 11
236.4262424308712
 21
129.4449244384234
 31
0.0
  0
LINE
  5
1EF
330
1F
100
AcDbEntity
  8
Sichtbare_Kanten_TC_020513_DIN_
  6
Continuous
 62
     7
100
AcDbLine
 10
236.4262424308712
 20
128.8532588719864
 30
0.0
 11
234.7976967780693
 21
123.3448877017374
 31
0.0
  0
LINE
  5
1F0
330
1F
100
AcDbEntity
  8
Sichtbare_Kanten_TC_020513_DIN_
  6
Continuous
 62
     7
100
AcDbLine
 10
231.9066863905153
 20
142.8134043359484
 30
0.0
 11
209.5702337601713
 21
142.8134043359484
 31
0.0
  0
LINE
  5
1F1
330
1F
100
AcDbEntity
  8
Sichtbare_Kanten_TC_020513_DIN_
  6
Continuous
 62
     7
100
AcDbLine
 10
209.5702337601713
 20
141.4134043359484
 30
0.0
 11
231.9066863905153
 21
141.4134043359484
 31
0.0
  0
LINE
  5
1F2
330
1F
100
AcDbEntity
  8
Sichtbare_Kanten_TC_020513_DIN_
  6
Continuous
 62
     7
100
AcDbLine
 10
207.6383821075943
 20
142.8134043359484
 30
0.0
 11
206.3162470008633
 21
142.8134043359484
 31
0.0
  0
LINE
  5
1F3
330
1F
100
AcDbEntity
  8
Sichtbare_Kanten_TC_020513_DIN_
  6
Continuous
 62
     7
100
AcDbLine
 10
207.6383821075943
 20
142.8134043359484
 30
0.0
 11
209.5702337601713
 21
142.8134043359484
 31
0.0
  0
LINE
  5
1F4
330
1F
100
AcDbEntity
  8
Sichtbare_Kanten_TC_020513_DIN_
  6
Continuous
 62
     7
100
AcDbLine
 10
232.8658451254902
 20
122.0014115596834
 30
0.0
 11
208.6110750252003
 21
122.0014115596834
 31
0.0
  0
LINE
  5
1F5
330
1F
100
AcDbEntity
  8
Sichtbare_Kanten_TC_020513_DIN_
  6
Continuous
 62
     7
100
AcDbLine
 10
205.0506777198203
 20
128.8532588719864
 30
0.0
 11
206.6792233726223
 21
123.3448877017374
 31
0.0
  0
LINE
  5
1F6
330
1F
100
AcDbEntity
  8
Sichtbare_Kanten_TC_020513_DIN_
  6
Continuous
 62
     7
100
AcDbLine
 10
204.8149772997674
 20
130.0365900048604
 30
0.0
 11
204.4465788345094
 21
131.4114717946334
 31
0.0
  0
LINE
  5
1F7
330
1F
100
AcDbEntity
  8
Sichtbare_Kanten_TC_020513_DIN_
  6
Continuous
 62
     7
100
AcDbLine
 10
201.3159119566013
 20
139.5967670333574
 30
0.0
 11
204.2050973779363
 21
139.5967670333574
 31
0.0
  0
LINE
  5
1F8
330
1F
100
AcDbEntity
  8
Sichtbare_Kanten_TC_020513_DIN_
  6
Continuous
 62
     7
100
AcDbLine
 10
199.7384600753452
 20
140.9209771531274
 30
0.0
 11
200.5498675134823
 21
139.9539794236714
 31
0.0
  0
LINE
  5
1F9
330
1F
100
AcDbEntity
  8
Sichtbare_Kanten_TC_020513_DIN_
  6
Continuous
 62
     7
100
AcDbLine
 10
204.2050973779363
 20
131.5967670333574
 30
0.0
 11
199.7384600753452
 21
131.5967670333574
 31
0.0
  0
LINE
  5
1FA
330
1F
100
AcDbEntity
  8
Sichtbare_Kanten_TC_020513_DIN_
  6
Continuous
 62
     7
100
AcDbLine
 10
198.3384600753533
 20
149.2357816983624
 30
0.0
 11
198.3384600753473
 21
144.0792429671524
 31
0.0
  0
LINE
  5
1FB
330
1F
100
AcDbEntity
  8
Sichtbare_Kanten_TC_020513_DIN_
  6
Continuous
 62
     7
100
AcDbLine
 10
198.3384600753463
 20
142.0320232825544
 30
0.0
 11
198.3384600753473
 21
144.0792429671524
 31
0.0
  0
LINE
  5
1FC
330
1F
100
AcDbEntity
  8
Sichtbare_Kanten_TC_020513_DIN_
  6
Continuous
 62
     7
100
AcDbLine
 10
198.3384600753513
 20
127.6279314614554
 30
0.0
 11
198.3384600753493
 21
131.5967670333574
 31
0.0
  0
LINE
  5
1FD
330
1F
100
AcDbEntity
  8
Sichtbare_Kanten_TC_020513_DIN_
  6
Continuous
 62
     7
100
AcDbLine
 10
198.3384600753513
 20
127.2793595697364
 30
0.0
 11
198.3384600753513
 21
127.6279314614554
 31
0.0
  0
LINE
  5
1FE
330
1F
100
AcDbEntity
  8
Sichtbare_Kanten_TC_020513_DIN_
  6
Continuous
 62
     7
100
AcDbLine
 10
198.3384600753513
 20
122.4513800136334
 30
0.0
 11
198.3384600753513
 21
127.2793595697364
 31
0.0
  0
LINE
  5
1FF
330
1F
100
AcDbEntity
  8
Sichtbare_Kanten_TC_020513_DIN_
  6
Continuous
 62
     7
100
AcDbLine
 10
198.3384600753513
 20
122.4513800136334
 30
0.0
 11
198.3384600753543
 21
114.2357816983624
 31
0.0
  0
LINE
  5
200
330
1F
100
AcDbEntity
  8
Sichtbare_Kanten_TC_020513_DIN_
  6
Continuous
 62
     7
100
AcDbLine
 10
198.3384600753543
 20
114.0981267833554
 30
0.0
 11
198.3384600753543
 21
114.2357816983624
 31
0.0
  0
LINE
  5
201
330
1F
100
AcDbEntity
  8
Sichtbare_Kanten_TC_020513_DIN_
  6
Continuous
 62
     7
100
AcDbLine
 10
196.9384600753543
 20
114.2357816983624
 30
0.0
 11
196.9384600753543
 21
114.0981267833554
 31
0.0
  0
LINE
  5
202
330
1F
100
AcDbEntity
  8
Sichtbare_Kanten_TC_020513_DIN_
  6
Continuous
 62
     7
100
AcDbLine
 10
196.9384600753543
 20
114.2357816983624
 30
0.0
 11
196.9384600753513
 21
122.4513800136334
 31
0.0
  0
LINE
  5
203
330
1F
100
AcDbEntity
  8
Sichtbare_Kanten_TC_020513_DIN_
  6
Continuous
 62
     7
100
AcDbLine
 10
196.9384600753513
 20
127.2793595697364
 30
0.0
 11
196.9384600753513
 21
122.4513800136334
 31
0.0
  0
LINE
  5
204
330
1F
100
AcDbEntity
  8
Sichtbare_Kanten_TC_020513_DIN_
  6
Continuous
 62
     7
100
AcDbLine
 10
196.9384600753513
 20
127.6279314614554
 30
0.0
 11
196.9384600753513
 21
127.2793595697364
 31
0.0
  0
LINE
  5
205
330
1F
100
AcDbEntity
  8
Sichtbare_Kanten_TC_020513_DIN_
  6
Continuous
 62
     7
100
AcDbLine
 10
196.9384600753503
 20
131.5967670333574
 30
0.0
 11
196.9384600753513
 21
127.6279314614554
 31
0.0
  0
LINE
  5
206
330
1F
100
AcDbEntity
  8
Sichtbare_Kanten_TC_020513_DIN_
  6
Continuous
 62
     7
100
AcDbLine
 10
196.9384600753473
 20
144.0792429671524
 30
0.0
 11
196.9384600753463
 21
142.0320232825544
 31
0.0
  0
LINE
  5
207
330
1F
100
AcDbEntity
  8
Sichtbare_Kanten_TC_020513_DIN_
  6
Continuous
 62
     7
100
AcDbLine
 10
196.9384600753473
 20
144.0792429671524
 30
0.0
 11
196.9384600753533
 21
149.2357816983624
 31
0.0
  0
LINE
  5
208
330
1F
100
AcDbEntity
  8
Sichtbare_Kanten_TC_020513_DIN_
  6
Continuous
 62
     7
100
AcDbLine
 10
209.5702337601713
 20
141.4134043359484
 30
0.0
 11
207.6383821075943
 21
141.4134043359484
 31
0.0
  0
LINE
  5
209
330
1F
100
AcDbEntity
  8
Sichtbare_Kanten_TC_020513_DIN_
  6
Continuous
 62
     7
100
AcDbLine
 10
206.3162470008633
 20
141.4134043359484
 30
0.0
 11
207.6383821075943
 21
141.4134043359484
 31
0.0
  0
LINE
  5
20A
330
1F
100
AcDbEntity
  8
Sichtbare_Kanten_TC_020513_DIN_
  6
Continuous
 62
     7
100
AcDbLine
 10
196.9384600753543
 20
114.2357816983624
 30
0.0
 11
198.3384600753543
 21
114.2357816983624
 31
0.0
  0
LINE
  5
20B
330
1F
100
AcDbEntity
  8
Sichtbare_Kanten_TC_020513_DIN_
  6
Continuous
 62
     7
100
AcDbLine
 10
196.9384600753533
 20
149.2357816983624
 30
0.0
 11
198.3384600753533
 21
149.2357816983624
 31
0.0
  0
LINE
  5
20C
330
1F
100
AcDbEntity
  8
Sichtbare_Kanten_TC_020513_DIN_
  6
Continuous
 62
     7
100
AcDbLine
 10
194.2384600753543
 20
112.5981267833554
 30
0.0
 11
193.9008051603473
 21
112.5981267833554
 31
0.0
  0
LINE
  5
20D
330
1F
100
AcDbEntity
  8
Sichtbare_Kanten_TC_020513_DIN_
  6
Continuous
 62
     7
100
AcDbLine
 10
193.9008051603473
 20
113.9981267833554
 30
0.0
 11
194.2384600753543
 21
113.9981267833554
 31
0.0
  0
LINE
  5
20E
330
1F
100
AcDbEntity
  8
Sichtbare_Kanten_TC_020513_DIN_
  6
Continuous
 62
     7
100
AcDbLine
 10
193.9008051603473
 20
113.9981267833554
 30
0.0
 11
193.9008051603473
 21
112.5981267833554
 31
0.0
  0
LINE
  5
20F
330
1F
100
AcDbEntity
  8
Sichtbare_Kanten_TC_020513_DIN_
  6
Continuous
 62
     7
100
AcDbLine
 10
196.8384600753543
 20
113.9981267833554
 30
0.0
 11
195.9044715039393
 21
113.9981267833554
 31
0.0
  0
LINE
  5
210
330
1F
100
AcDbEntity
  8
Sichtbare_Kanten_TC_020513_DIN_
  6
Continuous
 62
     7
100
AcDbLine
 10
206.6792233726213
 20
123.9365532681744
 30
0.0
 11
205.0506777198203
 21
129.4449244384234
 31
0.0
  0
LINE
  5
211
330
1F
100
AcDbEntity
  8
Sichtbare_Kanten_TC_020513_DIN_
  6
Continuous
 62
     7
100
AcDbLine
 10
208.6110750251993
 20
122.5930771261204
 30
0.0
 11
232.8658451254902
 21
122.5930771261204
 31
0.0
  0
LINE
  5
212
330
1F
100
AcDbEntity
  8
Sichtbare_Kanten_TC_020513_DIN_
  6
Continuous
 62
     7
100
AcDbLine
 10
194.2384600753543
 20
109.5018412737564
 30
0.0
 11
195.6384600753553
 21
109.5018412737564
 31
0.0
  0
LINE
  5
213
330
1F
100
AcDbEntity
  8
Sichtbare_Kanten_TC_020513_DIN_
  6
Continuous
 62
     7
100
AcDbLine
 10
194.2384600753543
 20
131.2357816983624
 30
0.0
 11
195.6384600753543
 21
131.2357816983624
 31
0.0
  0
LINE
  5
214
330
1F
100
AcDbEntity
  8
Sichtbare_Kanten_TC_020513_DIN_
  6
Continuous
 62
     7
100
AcDbLine
 10
245.8384600753543
 20
109.5018412737564
 30
0.0
 11
247.2384600753553
 21
109.5018412737564
 31
0.0
  0
LINE
  5
215
330
1F
100
AcDbEntity
  8
Sichtbare_Kanten_TC_020513_DIN_
  6
Continuous
 62
     7
100
AcDbLine
 10
245.8384600753543
 20
131.2357816983624
 30
0.0
 11
247.2384600753543
 21
131.2357816983624
 31
0.0
  0
LINE
  5
216
330
1F
100
AcDbEntity
  8
Sichtbare_Kanten_TC_020513_DIN_
  6
Continuous
 62
     7
100
AcDbLine
 10
236.4262424308712
 20
129.1845899608704
 30
0.0
 11
236.4262424308712
 21
129.4449244384234
 31
0.0
  0
LINE
  5
217
330
1F
100
AcDbEntity
  8
Sichtbare_Kanten_TC_020513_DIN_
  6
Continuous
 62
     7
100
AcDbLine
 10
236.4262424308712
 20
128.8532588719864
 30
0.0
 11
236.4262424308712
 21
129.1845899608704
 31
0.0
  0
LINE
  5
218
330
1F
100
AcDbEntity
  8
Sichtbare_Kanten_TC_020513_DIN_
  6
Continuous
 62
     7
100
AcDbLine
 10
242.4250593299543
 20
141.5967669774464
 30
0.0
 11
243.1116571540503
 21
141.5967669774464
 31
0.0
  0
LINE
  5
219
330
1F
100
AcDbEntity
  8
Sichtbare_Kanten_TC_020513_DIN_
  6
Continuous
 62
     7
100
AcDbLine
 10
243.7544619881243
 20
142.0320232825544
 30
0.0
 11
244.5384600753463
 21
142.0320232825544
 31
0.0
  0
LINE
  5
21A
330
1F
100
AcDbEntity
  8
Sichtbare_Kanten_TC_020513_DIN_
  6
Continuous
 62
     7
100
AcDbLine
 10
243.1384600753463
 20
142.0320232825544
 30
0.0
 11
243.7544619881243
 21
142.0320232825544
 31
0.0
  0
LINE
  5
21B
330
1F
100
AcDbEntity
  8
Sichtbare_Kanten_TC_020513_DIN_
  6
Continuous
 62
     7
100
AcDbLine
 10
243.1116582322653
 20
141.5967670333574
 30
0.0
 11
244.1075206036894
 21
141.5967670333574
 31
0.0
  0
LINE
  5
21C
330
1F
100
AcDbEntity
  8
Sichtbare_Kanten_TC_020513_DIN_
  6
Continuous
 62
     7
100
AcDbLine
 10
244.5384600753503
 20
131.5967670333574
 30
0.0
 11
241.7384600753452
 21
131.5967670333574
 31
0.0
  0
LINE
  5
21D
330
1F
100
AcDbEntity
  8
Sichtbare_Kanten_TC_020513_DIN_
  6
Continuous
 62
     7
100
AcDbLine
 10
244.5384600753463
 20
142.0320232825544
 30
0.0
 11
244.5384600753503
 21
131.5967670333574
 31
0.0
  0
LINE
  5
21E
330
1F
100
AcDbEntity
  8
Sichtbare_Kanten_TC_020513_DIN_
  6
Continuous
 62
     7
100
AcDbLine
 10
235.1606731498272
 20
142.0294054662284
 30
0.0
 11
235.1606731498272
 21
142.8134043359484
 31
0.0
  0
LINE
  5
21F
330
1F
100
AcDbEntity
  8
Sichtbare_Kanten_TC_020513_DIN_
  6
Continuous
 62
     7
100
AcDbLine
 10
235.1606731498272
 20
141.4134043359484
 30
0.0
 11
235.1606731498272
 21
142.0294054662284
 31
0.0
  0
LINE
  5
220
330
1F
100
AcDbEntity
  8
Sichtbare_Kanten_TC_020513_DIN_
  6
Continuous
 62
     7
100
AcDbLine
 10
206.3162470008633
 20
142.0294054662294
 30
0.0
 11
206.3162470008633
 21
141.4134043359484
 31
0.0
  0
LINE
  5
221
330
1F
100
AcDbEntity
  8
Sichtbare_Kanten_TC_020513_DIN_
  6
Continuous
 62
     7
100
AcDbLine
 10
206.3162470008633
 20
142.8134043359484
 30
0.0
 11
206.3162470008633
 21
142.0294054662294
 31
0.0
  0
LINE
  5
222
330
1F
100
AcDbEntity
  8
Sichtbare_Kanten_TC_020513_DIN_
  6
Continuous
 62
     7
100
AcDbLine
 10
205.0506777198203
 20
129.1845899608694
 30
0.0
 11
205.0506777198203
 21
128.8532588719864
 31
0.0
  0
LINE
  5
223
330
1F
100
AcDbEntity
  8
Sichtbare_Kanten_TC_020513_DIN_
  6
Continuous
 62
     7
100
AcDbLine
 10
205.0506777198203
 20
129.4449244384234
 30
0.0
 11
205.0506777198203
 21
129.1845899608694
 31
0.0
  0
LINE
  5
224
330
1F
100
AcDbEntity
  8
Sichtbare_Kanten_TC_020513_DIN_
  6
Continuous
 62
     7
100
AcDbLine
 10
196.9384600753503
 20
131.5967670333574
 30
0.0
 11
196.9384600753463
 21
142.0320232825544
 31
0.0
  0
LINE
  5
225
330
1F
100
AcDbEntity
  8
Sichtbare_Kanten_TC_020513_DIN_
  6
Continuous
 62
     7
100
AcDbLine
 10
197.7224581625694
 20
142.0320232825544
 30
0.0
 11
198.3384600753463
 21
142.0320232825544
 31
0.0
  0
LINE
  5
226
330
1F
100
AcDbEntity
  8
Sichtbare_Kanten_TC_020513_DIN_
  6
Continuous
 62
     7
100
AcDbLine
 10
196.9384600753463
 20
142.0320232825544
 30
0.0
 11
197.7224581625694
 21
142.0320232825544
 31
0.0
  0
LINE
  5
227
330
1F
100
AcDbEntity
  8
Sichtbare_Kanten_TC_020513_DIN_
  6
Continuous
 62
     7
100
AcDbLine
 10
199.0518608207383
 20
141.5967669774464
 30
0.0
 11
198.3652629966413
 21
141.5967669774464
 31
0.0
  0
LINE
  5
228
330
1F
100
AcDbEntity
  8
Sichtbare_Kanten_TC_020513_DIN_
  6
Continuous
 62
     7
100
AcDbLine
 10
197.3693995470023
 20
141.5967670333574
 30
0.0
 11
198.3652619184263
 21
141.5967670333574
 31
0.0
  0
LINE
  5
229
330
1F
100
AcDbEntity
  8
Sichtbare_Kanten_TC_020513_DIN_
  6
Continuous
 62
     7
100
AcDbLine
 10
199.7384600753452
 20
131.5967670333574
 30
0.0
 11
196.9384600753503
 21
131.5967670333574
 31
0.0
  0
LINE
  5
22A
330
1F
100
AcDbEntity
  8
Mittelpunktmarkierung_TC_020513_DIN_
  6
CHAIN
 62
     7
100
AcDbLine
 10
82.60100862253091
 20
124.2357816983624
 30
0.0
 11
68.20100862253094
 21
124.2357816983624
 31
0.0
  0
LINE
  5
22B
330
1F
100
AcDbEntity
  8
Mittelpunktmarkierung_TC_020513_DIN_
  6
CHAIN
 62
     7
100
AcDbLine
 10
75.40100862253092
 20
131.4357816983624
 30
0.0
 11
75.40100862253092
 21
117.0357816983624
 31
0.0
  0
LINE
  5
22C
330
1F
100
AcDbEntity
  8
Mittelpunktmarkierung_TC_020513_DIN_
  6
CHAIN
 62
     7
100
AcDbLine
 10
82.65100862253104
 20
113.2357816983624
 30
0.0
 11
74.15100862253092
 21
113.2357816983624
 31
0.0
  0
LINE
  5
22D
330
1F
100
AcDbEntity
  8
Mittelpunktmarkierung_TC_020513_DIN_
  6
CHAIN
 62
     7
100
AcDbLine
 10
78.40100862253104
 20
117.4857816983624
 30
0.0
 11
78.40100862253104
 21
108.9857816983624
 31
0.0
  0
LINE
  5
22E
330
1F
100
AcDbEntity
  8
Mittelpunktmarkierung_TC_020513_DIN_
  6
CHAIN
 62
     7
100
AcDbLine
 10
103.6510086225313
 20
113.2357816983624
 30
0.0
 11
95.15100862253132
 21
113.2357816983624
 31
0.0
  0
LINE
  5
22F
330
1F
100
AcDbEntity
  8
Mittelpunktmarkierung_TC_020513_DIN_
  6
CHAIN
 62
     7
100
AcDbLine
 10
99.40100862253132
 20
117.4857816983624
 30
0.0
 11
99.40100862253132
 21
108.9857816983624
 31
0.0
  0
LINE
  5
230
330
1F
100
AcDbEntity
  8
Mittelpunktmarkierung_TC_020513_DIN_
  6
CHAIN
 62
     7
100
AcDbLine
 10
109.6010086225313
 20
124.2357816983624
 30
0.0
 11
95.20100862253133
 21
124.2357816983624
 31
0.0
  0
LINE
  5
231
330
1F
100
AcDbEntity
  8
Mittelpunktmarkierung_TC_020513_DIN_
  6
CHAIN
 62
     7
100
AcDbLine
 10
102.4010086225313
 20
131.4357816983624
 30
0.0
 11
102.4010086225313
 21
117.0357816983624
 31
0.0
  0
LINE
  5
232
330
1F
100
AcDbEntity
  8
Mittelpunktmarkierung_TC_020513_DIN_
  6
CHAIN
 62
     7
100
AcDbLine
 10
234.9804600753683
 20
90.8157816983624
 30
0.0
 11
206.4964600753683
 21
90.8157816983624
 31
0.0
  0
LINE
  5
233
330
1F
100
AcDbEntity
  8
Mittelpunktmarkierung_TC_020513_DIN_
  6
CHAIN
 62
     7
100
AcDbLine
 10
220.7384600753683
 20
105.0577816983624
 30
0.0
 11
220.7384600753683
 21
76.57378169836258
 31
0.0
  0
LINE
  5
234
330
1F
100
AcDbEntity
  8
Mittellinie_TC_020513_DIN_
  6
CHAIN
 62
     7
100
AcDbLine
 10
200.7384600753463
 20
71.73578169836259
 30
0.0
 11
200.7384600753463
 21
80.73578169836239
 31
0.0
  0
LINE
  5
235
330
1F
100
AcDbEntity
  8
Mittellinie_TC_020513_DIN_
  6
CHAIN
 62
     7
100
AcDbLine
 10
240.4884600753483
 20
71.73578169836259
 30
0.0
 11
240.4884600753483
 21
80.73578169836239
 31
0.0
  0
LINE
  5
236
330
1F
100
AcDbEntity
  8
Mittellinie_TC_020513_DIN_
  6
CHAIN
 62
     7
100
AcDbLine
 10
193.1384600753543
 20
124.2357816983624
 30
0.0
 11
200.8884600753543
 21
124.2357816983624
 31
0.0
  0
LINE
  5
237
330
1F
100
AcDbEntity
  8
Mittellinie_TC_020513_DIN_
  6
CHAIN
 62
     7
100
AcDbLine
 10
191.1384600753543
 20
124.2357816983624
 30
0.0
 11
196.7384600753543
 21
124.2357816983624
 31
0.0
  0
LINE
  5
238
330
1F
100
AcDbEntity
  8
Mittellinie_TC_020513_DIN_
  6
CHAIN
 62
     7
100
AcDbLine
 10
240.5884600753543
 20
124.2357816983624
 30
0.0
 11
248.3384600753543
 21
124.2357816983624
 31
0.0
  0
LINE
  5
239
330
1F
100
AcDbEntity
  8
Mittellinie_TC_020513_DIN_
  6
CHAIN
 62
     7
100
AcDbLine
 10
244.7384600753543
 20
124.2357816983624
 30
0.0
 11
250.3384600753543
 21
124.2357816983624
 31
0.0
  0
LINE
  5
23A
330
1F
100
AcDbEntity
  8
Mittellinie_TC_020513_DIN_
  6
CHAIN
 62
     7
100
AcDbLine
 10
88.90100862253104
 20
72.0087725205158
 30
0.0
 11
88.90100862253104
 21
134.2846945891864
 31
0.0
  0
LINE
  5
23B
330
1F
100
AcDbEntity
  8
Mittellinie_TC_020513_DIN_
  6
CHAIN
 62
     7
100
AcDbLine
 10
129.9010086225313
 20
71.73578169836259
 30
0.0
 11
129.9010086225313
 21
80.73578169836239
 31
0.0
  0
LINE
  5
23C
330
1F
100
AcDbEntity
  8
Mittellinie_TC_020513_DIN_
  6
CHAIN
 62
     7
100
AcDbLine
 10
120.1510086225313
 20
90.8157816983624
 30
0.0
 11
138.1510086225313
 21
90.8157816983624
 31
0.0
  0
LINE
  5
23D
330
1F
100
AcDbEntity
  8
Mittellinie_TC_020513_DIN_
  6
CHAIN
 62
     7
100
AcDbLine
 10
47.90100862253092
 20
71.73578169836259
 30
0.0
 11
47.90100862253092
 21
80.73578169836239
 31
0.0
  0
LINE
  5
23E
330
1F
100
AcDbEntity
  8
Mittellinie_TC_020513_DIN_
  6
CHAIN
 62
     7
100
AcDbLine
 10
39.65100862253104
 20
90.8157816983624
 30
0.0
 11
57.65100862253092
 21
90.8157816983624
 31
0.0
  0
LINE
  5
68F
330
1F
100
AcDbEntity
  8
1
  6
Continuous
 62
     2
100
AcDbLine
 10
135.6510086225313
 20
102.5577816983624
 30
0.0
 11
135.7510086225313
 21
102.5577816983624
 31
0.0
  0
LINE
  5
690
330
1F
100
AcDbEntity
  8
Sichtbare_Kanten_TC_020513_DIN_
  6
Continuous
 62
     7
100
AcDbLine
 10
135.6510086225313
 20
102.5577816983624
 30
0.0
 11
135.6510086225313
 21
103.1457816983624
 31
0.0
  0
LINE
  5
691
330
1F
100
AcDbEntity
  8
1
  6
Continuous
 62
     2
100
AcDbLine
 10
135.6510086225313
 20
79.07378169836258
 30
0.0
 11
135.7510086225313
 21
79.07378169836258
 31
0.0
  0
LINE
  5
692
330
1F
100
AcDbEntity
  8
Sichtbare_Kanten_TC_020513_DIN_
  6
Continuous
 62
     7
100
AcDbLine
 10
135.6510086225313
 20
79.07378169836258
 30
0.0
 11
135.6510086225313
 21
78.23578169836259
 31
0.0
  0
ARC
  5
693
330
1F
100
AcDbEntity
  8
Sichtbare_Kanten_TC_020513_DIN_
  6
Continuous
 62
     7
100
AcDbCircle
 10
90.90100862253104
 20
97.67944830949841
 30
0.0
 40
0.2500000000001137
100
AcDbArc
 50
180.0
 51
299.9706156500408
  0
ARC
  5
694
330
1F
100
AcDbEntity
  8
Sichtbare_Kanten_TC_020513_DIN_
  6
Continuous
 62
     7
100
AcDbCircle
 10
91.90100862253092
 20
98.2561149761654
 30
0.0
 40
0.25000000000025
100
AcDbArc
 50
299.9706156499494
 51
119.9706156499382
  0
ARC
  5
695
330
1F
100
AcDbEntity
  8
Sichtbare_Kanten_TC_020513_DIN_
  6
Continuous
 62
     7
100
AcDbCircle
 10
91.90100862253092
 20
99.23578169836341
 30
0.0
 40
0.25
100
AcDbArc
 50
270.0
 51
90.0
  0
ARC
  5
696
330
1F
100
AcDbEntity
  8
Sichtbare_Kanten_TC_020513_DIN_
  6
Continuous
 62
     7
100
AcDbCircle
 10
91.90100862253092
 20
100.2154484205614
 30
0.0
 40
0.2500000000002661
100
AcDbArc
 50
240.0293843500376
 51
60.02938434993504
  0
ARC
  5
697
330
1F
100
AcDbEntity
  8
Sichtbare_Kanten_TC_020513_DIN_
  6
Continuous
 62
     7
100
AcDbCircle
 10
90.90100862253104
 20
100.7921150872274
 30
0.0
 40
0.2500000000001809
100
AcDbArc
 50
60.02938435007151
 51
180.0
  0
ARC
  5
698
330
1F
100
AcDbEntity
  8
Sichtbare_Kanten_TC_020513_DIN_
  6
Continuous
 62
     7
100
AcDbCircle
 10
85.90100862253104
 20
98.2457816983624
 30
0.0
 40
0.25
100
AcDbArc
 50
180.0
 51
0.0
  0
ARC
  5
699
330
1F
100
AcDbEntity
  8
Sichtbare_Kanten_TC_020513_DIN_
  6
Continuous
 62
     7
100
AcDbCircle
 10
85.90100862253104
 20
100.2257816983624
 30
0.0
 40
0.2499999999998863
100
AcDbArc
 50
0.0
 51
180.0
  0
ARC
  5
69A
330
1F
100
AcDbEntity
  8
Sichtbare_Kanten_TC_020513_DIN_
  6
Continuous
 62
     7
100
AcDbCircle
 10
86.90100862253104
 20
97.6794483094994
 30
0.0
 40
0.2500000000001137
100
AcDbArc
 50
180.0
 51
240.0293843500393
  0
ARC
  5
69B
330
1F
100
AcDbEntity
  8
Sichtbare_Kanten_TC_020513_DIN_
  6
Continuous
 62
     7
100
AcDbCircle
 10
88.90100862253104
 20
96.52611497616539
 30
0.0
 40
0.249999999999392
100
AcDbArc
 50
240.0293843499221
 51
60.02938435007312
  0
ARC
  5
69C
330
1F
100
AcDbEntity
  8
Sichtbare_Kanten_TC_020513_DIN_
  6
Continuous
 62
     7
100
AcDbCircle
 10
86.90100862253092
 20
100.7921150872274
 30
0.0
 40
0.2500000000001137
100
AcDbArc
 50
0.0
 51
180.0
  0
ARC
  5
69D
330
1F
100
AcDbEntity
  8
Sichtbare_Kanten_TC_020513_DIN_
  6
Continuous
 62
     7
100
AcDbCircle
 10
89.90100862253104
 20
97.10278164283241
 30
0.0
 40
0.25
100
AcDbArc
 50
180.0
 51
0.0
  0
ARC
  5
69E
330
1F
100
AcDbEntity
  8
Sichtbare_Kanten_TC_020513_DIN_
  6
Continuous
 62
     7
100
AcDbCircle
 10
89.90100862253104
 20
101.3687817538944
 30
0.0
 40
0.25
100
AcDbArc
 50
0.0
 51
143.2525021774674
  0
ARC
  5
69F
330
1F
100
AcDbEntity
  8
Sichtbare_Kanten_TC_020513_DIN_
  6
Continuous
 62
     7
100
AcDbCircle
 10
87.90100862253092
 20
101.3687817538944
 30
0.0
 40
0.2499999999998266
100
AcDbArc
 50
36.74749782254033
 51
180.0
  0
ARC
  5
6A0
330
1F
100
AcDbEntity
  8
Sichtbare_Kanten_TC_020513_DIN_
  6
Continuous
 62
     7
100
AcDbCircle
 10
87.90100862253092
 20
98.2457816983624
 30
0.0
 40
0.2499999999998863
100
AcDbArc
 50
180.0
 51
0.0
  0
ARC
  5
6A1
330
1F
100
AcDbEntity
  8
Sichtbare_Kanten_TC_020513_DIN_
  6
Continuous
 62
     7
100
AcDbCircle
 10
125.7010086225313
 20
117.2357816983624
 30
0.0
 40
8.0
100
AcDbArc
 50
0.0
 51
90.0
  0
ARC
  5
6A2
330
1F
100
AcDbEntity
  8
Sichtbare_Kanten_TC_020513_DIN_
  6
Continuous
 62
     7
100
AcDbCircle
 10
112.4010086225313
 20
125.7357816983624
 30
0.0
 40
0.4999999999999151
100
AcDbArc
 50
220.029018176398
 51
270.0
  0
ARC
  5
6A3
330
1F
100
AcDbEntity
  8
Sichtbare_Kanten_TC_020513_DIN_
  6
Continuous
 62
     7
100
AcDbCircle
 10
96.70377328559931
 20
112.5506839445734
 30
0.0
 40
20.00000000000004
100
AcDbArc
 50
40.02901817645225
 51
64.00779443620857
  0
ARC
  5
6A4
330
1F
100
AcDbEntity
  8
Sichtbare_Kanten_TC_020513_DIN_
  6
Continuous
 62
     7
100
AcDbCircle
 10
102.4010086225313
 20
124.2357816983624
 30
0.0
 40
6.999999999999725
100
AcDbArc
 50
64.00779443621322
 51
180.0
  0
ARC
  5
6A5
330
1F
100
AcDbEntity
  8
Sichtbare_Kanten_TC_020513_DIN_
  6
Continuous
 62
     7
100
AcDbCircle
 10
95.90100862253132
 20
110.7357816983624
 30
0.0
 40
0.5
100
AcDbArc
 50
180.0
 51
251.6923269006372
  0
ARC
  5
6A6
330
1F
100
AcDbEntity
  8
Sichtbare_Kanten_TC_020513_DIN_
  6
Continuous
 62
     7
100
AcDbCircle
 10
100.4557428372463
 20
124.5018412737564
 30
0.0
 40
14.99999999999958
100
AcDbArc
 50
251.6923269007133
 51
334.1179484035668
  0
ARC
  5
6A7
330
1F
100
AcDbEntity
  8
Sichtbare_Kanten_TC_020513_DIN_
  6
Continuous
 62
     7
100
AcDbCircle
 10
114.4010086225313
 20
117.7357816983624
 30
0.0
 40
0.5
100
AcDbArc
 50
90.0
 51
154.1179484036069
  0
ARC
  5
6A8
330
1F
100
AcDbEntity
  8
Sichtbare_Kanten_TC_020513_DIN_
  6
Continuous
 62
     7
100
AcDbCircle
 10
125.7010086225313
 20
117.2357816983624
 30
0.0
 40
1.0
100
AcDbArc
 50
0.0
 51
90.0
  0
ARC
  5
6A9
330
1F
100
AcDbEntity
  8
Sichtbare_Kanten_TC_020513_DIN_
  6
Continuous
 62
     7
100
AcDbCircle
 10
126.6633537075233
 20
111.9191443957714
 30
0.0
 40
0.1000000000010033
100
AcDbArc
 50
90.0
 51
180.0
  0
ARC
  5
6AA
330
1F
100
AcDbEntity
  8
Sichtbare_Kanten_TC_020513_DIN_
  6
Continuous
 62
     7
100
AcDbCircle
 10
126.6633537075233
 20
111.9191443957714
 30
0.0
 40
1.5
100
AcDbArc
 50
90.0
 51
180.0
  0
ARC
  5
6AB
330
1F
100
AcDbEntity
  8
Sichtbare_Kanten_TC_020513_DIN_
  6
Continuous
 62
     7
100
AcDbCircle
 10
52.10100862253091
 20
117.2357816983624
 30
0.0
 40
1.0
100
AcDbArc
 50
90.0
 51
180.0
  0
ARC
  5
6AC
330
1F
100
AcDbEntity
  8
Sichtbare_Kanten_TC_020513_DIN_
  6
Continuous
 62
     7
100
AcDbCircle
 10
63.40100862253104
 20
117.7357816983624
 30
0.0
 40
0.4999999999999212
100
AcDbArc
 50
25.88205159643293
 51
90.0
  0
ARC
  5
6AD
330
1F
100
AcDbEntity
  8
Sichtbare_Kanten_TC_020513_DIN_
  6
Continuous
 62
     7
100
AcDbCircle
 10
77.3462744078152
 20
124.5018412737564
 30
0.0
 40
15.00000000000001
100
AcDbArc
 50
205.8820515964332
 51
288.3076730992875
  0
ARC
  5
6AE
330
1F
100
AcDbEntity
  8
Sichtbare_Kanten_TC_020513_DIN_
  6
Continuous
 62
     7
100
AcDbCircle
 10
81.90100862253104
 20
110.7357816983624
 30
0.0
 40
0.4999999999996581
100
AcDbArc
 50
288.3076730992948
 51
0.0
  0
ARC
  5
6AF
330
1F
100
AcDbEntity
  8
Sichtbare_Kanten_TC_020513_DIN_
  6
Continuous
 62
     7
100
AcDbCircle
 10
75.40100862253092
 20
124.2357816983624
 30
0.0
 40
7.0
100
AcDbArc
 50
0.0
 51
115.9922055637914
  0
ARC
  5
6B0
330
1F
100
AcDbEntity
  8
Sichtbare_Kanten_TC_020513_DIN_
  6
Continuous
 62
     7
100
AcDbCircle
 10
81.09824395946242
 20
112.5506839445734
 30
0.0
 40
19.99999999999946
100
AcDbArc
 50
115.9922055637918
 51
139.9709818235472
  0
ARC
  5
6B1
330
1F
100
AcDbEntity
  8
Sichtbare_Kanten_TC_020513_DIN_
  6
Continuous
 62
     7
100
AcDbCircle
 10
65.40100862253104
 20
125.7357816983624
 30
0.0
 40
0.5
100
AcDbArc
 50
270.0
 51
319.970981823579
  0
ARC
  5
6B2
330
1F
100
AcDbEntity
  8
Sichtbare_Kanten_TC_020513_DIN_
  6
Continuous
 62
     7
100
AcDbCircle
 10
52.10100862253091
 20
117.2357816983624
 30
0.0
 40
8.0
100
AcDbArc
 50
90.0
 51
180.0
  0
ARC
  5
6B3
330
1F
100
AcDbEntity
  8
Sichtbare_Kanten_TC_020513_DIN_
  6
Continuous
 62
     7
100
AcDbCircle
 10
70.58304632765862
 20
135.7357816983624
 30
0.0
 40
0.4999999999999188
100
AcDbArc
 50
159.7314654157416
 51
214.7314654156929
  0
ARC
  5
6B4
330
1F
100
AcDbEntity
  8
Sichtbare_Kanten_TC_020513_DIN_
  6
Continuous
 62
     7
100
AcDbCircle
 10
75.40100862253092
 20
137.2357816983624
 30
0.0
 40
4.500000000000008
100
AcDbArc
 50
61.04497562813997
 51
159.7314654157202
  0
ARC
  5
6B5
330
1F
100
AcDbEntity
  8
Sichtbare_Kanten_TC_020513_DIN_
  6
Continuous
 62
     7
100
AcDbCircle
 10
79.66129030335912
 20
144.9357816983624
 30
0.0
 40
4.300000000000026
100
AcDbArc
 50
241.04497562814
 51
90.0
  0
ARC
  5
6B6
330
1F
100
AcDbEntity
  8
Sichtbare_Kanten_TC_020513_DIN_
  6
Continuous
 62
     7
100
AcDbCircle
 10
71.66129030335912
 20
114.2357816983624
 30
0.0
 40
34.99999999999999
100
AcDbArc
 50
90.0
 51
121.4966928421464
  0
ARC
  5
6B7
330
1F
100
AcDbEntity
  8
Sichtbare_Kanten_TC_020513_DIN_
  6
Continuous
 62
     7
100
AcDbCircle
 10
51.40100862253104
 20
132.5967670333574
 30
0.0
 40
1.0
100
AcDbArc
 50
270.0
 51
321.655939335372
  0
ARC
  5
6B8
330
1F
100
AcDbEntity
  8
Sichtbare_Kanten_TC_020513_DIN_
  6
Continuous
 62
     7
100
AcDbCircle
 10
55.40100862253092
 20
135.2357816983624
 30
0.0
 40
0.5000000000001783
100
AcDbArc
 50
51.65593933537193
 51
141.6559393353247
  0
ARC
  5
6B9
330
1F
100
AcDbEntity
  8
Sichtbare_Kanten_TC_020513_DIN_
  6
Continuous
 62
     7
100
AcDbCircle
 10
65.51476551176552
 20
127.2357816983624
 30
0.0
 40
0.4999999999999349
100
AcDbArc
 50
5.00000000002006
 51
51.65593933537667
  0
ARC
  5
6BA
330
1F
100
AcDbEntity
  8
Sichtbare_Kanten_TC_020513_DIN_
  6
Continuous
 62
     7
100
AcDbCircle
 10
51.13866353753849
 20
111.9191443957714
 30
0.0
 40
1.499999999999936
100
AcDbArc
 50
0.0
 51
90.00000000000244
  0
ARC
  5
6BB
330
1F
100
AcDbEntity
  8
Sichtbare_Kanten_TC_020513_DIN_
  6
Continuous
 62
     7
100
AcDbCircle
 10
51.13866353753849
 20
111.9191443957714
 30
0.0
 40
0.1000000000000156
100
AcDbArc
 50
0.0
 51
90.00000000003664
  0
ARC
  5
6BC
330
1F
100
AcDbEntity
  8
Sichtbare_Kanten_TC_020513_DIN_
  6
Continuous
 62
     7
100
AcDbCircle
 10
112.2872517332963
 20
127.2357816983624
 30
0.0
 40
0.5000000000003655
100
AcDbArc
 50
128.3440606646578
 51
174.9999999999821
  0
ARC
  5
6BD
330
1F
100
AcDbEntity
  8
Sichtbare_Kanten_TC_020513_DIN_
  6
Continuous
 62
     7
100
AcDbCircle
 10
122.4010086225313
 20
135.2357816983624
 30
0.0
 40
0.4999999999995941
100
AcDbArc
 50
38.34406066472982
 51
128.3440606646555
  0
ARC
  5
6BE
330
1F
100
AcDbEntity
  8
Sichtbare_Kanten_TC_020513_DIN_
  6
Continuous
 62
     7
100
AcDbCircle
 10
126.4010086225313
 20
132.5967670333574
 30
0.0
 40
1.000000000000103
100
AcDbArc
 50
218.3440606646136
 51
270.0
  0
ARC
  5
6BF
330
1F
100
AcDbEntity
  8
Sichtbare_Kanten_TC_020513_DIN_
  6
Continuous
 62
     7
100
AcDbCircle
 10
106.1407269417023
 20
114.2357816983624
 30
0.0
 40
35.00000000000034
100
AcDbArc
 50
58.50330715785253
 51
90.0
  0
ARC
  5
6C0
330
1F
100
AcDbEntity
  8
Sichtbare_Kanten_TC_020513_DIN_
  6
Continuous
 62
     7
100
AcDbCircle
 10
98.14072694170329
 20
144.9357816983624
 30
0.0
 40
4.299999999999983
100
AcDbArc
 50
90.0
 51
298.9550243718542
  0
ARC
  5
6C1
330
1F
100
AcDbEntity
  8
Sichtbare_Kanten_TC_020513_DIN_
  6
Continuous
 62
     7
100
AcDbCircle
 10
102.4010086225313
 20
137.2357816983624
 30
0.0
 40
4.500000000000146
100
AcDbArc
 50
20.2685345842798
 51
118.9550243718633
  0
ARC
  5
6C2
330
1F
100
AcDbEntity
  8
Sichtbare_Kanten_TC_020513_DIN_
  6
Continuous
 62
     7
100
AcDbCircle
 10
107.2189709174033
 20
135.7357816983624
 30
0.0
 40
0.4999999999998483
100
AcDbArc
 50
325.2685345843117
 51
20.2685345842703
  0
ARC
  5
6C3
330
1F
100
AcDbEntity
  8
Sichtbare_Kanten_TC_020513_DIN_
  6
Continuous
 62
     7
100
AcDbCircle
 10
220.7384600753483
 20
90.8157816983624
 30
0.0
 40
12.32999999999598
100
AcDbArc
 50
0.0
 51
180.0
  0
ARC
  5
6C4
330
1F
100
AcDbEntity
  8
Sichtbare_Kanten_TC_020513_DIN_
  6
Continuous
 62
     7
100
AcDbCircle
 10
248.5384600753543
 20
120.2357816983624
 30
0.0
 40
0.6999999999999886
100
AcDbArc
 50
180.0
 51
0.0
  0
ARC
  5
6C5
330
1F
100
AcDbEntity
  8
Sichtbare_Kanten_TC_020513_DIN_
  6
Continuous
 62
     7
100
AcDbCircle
 10
248.5384600753543
 20
128.2357816983624
 30
0.0
 40
0.700000000000017
100
AcDbArc
 50
0.0
 51
180.0
  0
ARC
  5
6C6
330
1F
100
AcDbEntity
  8
Sichtbare_Kanten_TC_020513_DIN_
  6
Continuous
 62
     7
100
AcDbCircle
 10
192.9384600753543
 20
128.2357816983624
 30
0.0
 40
0.6999999999999886
100
AcDbArc
 50
0.0
 51
180.0
  0
ARC
  5
6C7
330
1F
100
AcDbEntity
  8
Sichtbare_Kanten_TC_020513_DIN_
  6
Continuous
 62
     7
100
AcDbCircle
 10
192.9384600753543
 20
120.2357816983624
 30
0.0
 40
0.6999999999999886
100
AcDbArc
 50
180.0
 51
0.0
  0
ARC
  5
6C8
330
1F
100
AcDbEntity
  8
Sichtbare_Kanten_TC_020513_DIN_
  6
Continuous
 62
     7
100
AcDbCircle
 10
197.0384600753453
 20
114.8191443957714
 30
0.0
 40
2.800000000000125
100
AcDbArc
 50
180.0
 51
270.0
  0
ARC
  5
6C9
330
1F
100
AcDbEntity
  8
Sichtbare_Kanten_TC_020513_DIN_
  6
Continuous
 62
     7
100
AcDbCircle
 10
197.0384600753453
 20
114.8191443957714
 30
0.0
 40
1.400000000000006
100
AcDbArc
 50
180.0
 51
270.0
  0
ARC
  5
6CA
330
1F
100
AcDbEntity
  8
Sichtbare_Kanten_TC_020513_DIN_
  6
Continuous
 62
     7
100
AcDbCircle
 10
210.4550973779373
 20
111.5814894807644
 30
0.0
 40
0.5
100
AcDbArc
 50
270.0
 51
0.0
  0
ARC
  5
6CB
330
1F
100
AcDbEntity
  8
Sichtbare_Kanten_TC_020513_DIN_
  6
Continuous
 62
     7
100
AcDbCircle
 10
231.0218227727564
 20
111.5814894807644
 30
0.0
 40
0.5
100
AcDbArc
 50
180.0
 51
270.0
  0
ARC
  5
6CC
330
1F
100
AcDbEntity
  8
Sichtbare_Kanten_TC_020513_DIN_
  6
Continuous
 62
     7
100
AcDbCircle
 10
237.2718227727552
 20
141.0967670333574
 30
0.0
 40
1.499999999999938
100
AcDbArc
 50
226.2398789709711
 51
270.0
  0
ARC
  5
6CD
330
1F
100
AcDbEntity
  8
Sichtbare_Kanten_TC_020513_DIN_
  6
Continuous
 62
     7
100
AcDbCircle
 10
240.1610081940902
 20
140.5967670333574
 30
0.0
 40
1.0
100
AcDbArc
 50
270.0
 51
320.0000000000288
  0
ARC
  5
6CE
330
1F
100
AcDbEntity
  8
Sichtbare_Kanten_TC_020513_DIN_
  6
Continuous
 62
     7
100
AcDbCircle
 10
237.2718227727552
 20
131.3467670333574
 30
0.0
 40
0.25
100
AcDbArc
 50
90.0
 51
164.9999999999546
  0
ARC
  5
6CF
330
1F
100
AcDbEntity
  8
Sichtbare_Kanten_TC_020513_DIN_
  6
Continuous
 62
     7
100
AcDbCircle
 10
204.2050973779363
 20
141.0967670333574
 30
0.0
 40
1.5
100
AcDbArc
 50
270.0
 51
313.7601210290313
  0
ARC
  5
6D0
330
1F
100
AcDbEntity
  8
Sichtbare_Kanten_TC_020513_DIN_
  6
Continuous
 62
     7
100
AcDbCircle
 10
201.3159119566013
 20
140.5967670333574
 30
0.0
 40
0.9999999999996677
100
AcDbArc
 50
219.9999999999754
 51
270.0
  0
ARC
  5
6D1
330
1F
100
AcDbEntity
  8
Sichtbare_Kanten_TC_020513_DIN_
  6
Continuous
 62
     7
100
AcDbCircle
 10
204.2050973779363
 20
131.3467670333574
 30
0.0
 40
0.2500000000008994
100
AcDbArc
 50
15.00000000003365
 51
90.0
  0
ARC
  5
6D2
330
1F
100
AcDbEntity
  8
Sichtbare_Kanten_TC_020513_DIN_
  6
Continuous
 62
     7
100
AcDbCircle
 10
244.4384600753453
 20
114.8191443957714
 30
0.0
 40
2.799999999999002
100
AcDbArc
 50
270.0
 51
0.0
  0
ARC
  5
6D3
330
1F
100
AcDbEntity
  8
Sichtbare_Kanten_TC_020513_DIN_
  6
Continuous
 62
     7
100
AcDbCircle
 10
244.4384600753453
 20
114.8191443957714
 30
0.0
 40
1.400000000000006
100
AcDbArc
 50
270.0
 51
0.0
  0
ARC
  5
6D4
330
1F
100
AcDbEntity
  8
Sichtbare_Kanten_TC_020513_DIN_
  6
Continuous
 62
     7
100
AcDbCircle
 10
244.6384600753543
 20
114.0981267833554
 30
0.0
 40
0.0999999999999943
100
AcDbArc
 50
180.0
 51
270.0
  0
ARC
  5
6D5
330
1F
100
AcDbEntity
  8
Sichtbare_Kanten_TC_020513_DIN_
  6
Continuous
 62
     7
100
AcDbCircle
 10
244.6384600753543
 20
114.0981267833554
 30
0.0
 40
1.5
100
AcDbArc
 50
180.0
 51
206.9141492018864
  0
ARC
  5
6D6
330
1F
100
AcDbEntity
  8
Sichtbare_Kanten_TC_020513_DIN_
  6
Continuous
 62
     7
100
AcDbCircle
 10
196.8384600753543
 20
114.0981267833554
 30
0.0
 40
0.0999999999999943
100
AcDbArc
 50
270.0
 51
0.0
  0
ARC
  5
6D7
330
1F
100
AcDbEntity
  8
Sichtbare_Kanten_TC_020513_DIN_
  6
Continuous
 62
     7
100
AcDbCircle
 10
196.8384600753543
 20
114.0981267833554
 30
0.0
 40
1.500000000000191
100
AcDbArc
 50
333.0858507981141
 51
0.0
  0
ARC
  5
6D8
330
1F
100
AcDbEntity
  8
Stich_1-Linien_TC_020513_DIN_
  6
DASHED_SPACE
 62
     7
100
AcDbCircle
 10
78.40100862253104
 20
113.2357816983624
 30
0.0
 40
48.93394997171646
100
AcDbArc
 50
133.243632308582
 51
180.0
  0
ARC
  5
6D9
330
1F
100
AcDbEntity
  8
Stich_1-Linien_TC_020513_DIN_
  6
DASHED_SPACE
 62
     7
100
AcDbCircle
 10
99.40100862253132
 20
113.2357816983624
 30
0.0
 40
48.93394997171598
100
AcDbArc
 50
0.0
 51
46.75636769141859
  0
CIRCLE
  5
6DA
330
1F
100
AcDbEntity
  8
Sichtbare_Kanten_TC_020513_DIN_
  6
Continuous
 62
     7
100
AcDbCircle
 10
102.4010086225313
 20
124.2357816983624
 30
0.0
 40
4.700000000000003
  0
CIRCLE
  5
6DB
330
1F
100
AcDbEntity
  8
Sichtbare_Kanten_TC_020513_DIN_
  6
Continuous
 62
     7
100
AcDbCircle
 10
75.40100862253092
 20
124.2357816983624
 30
0.0
 40
4.699999999999989
  0
CIRCLE
  5
6DC
330
1F
100
AcDbEntity
  8
Sichtbare_Kanten_TC_020513_DIN_
  6
Continuous
 62
     7
100
AcDbCircle
 10
99.40100862253132
 20
113.2357816983624
 30
0.0
 40
1.749999999999972
  0
CIRCLE
  5
6DD
330
1F
100
AcDbEntity
  8
Sichtbare_Kanten_TC_020513_DIN_
  6
Continuous
 62
     7
100
AcDbCircle
 10
78.40100862253104
 20
113.2357816983624
 30
0.0
 40
1.75
  0
CIRCLE
  5
6DE
330
1F
100
AcDbEntity
  8
Sichtbare_Kanten_TC_020513_DIN_
  6
Continuous
 62
     7
100
AcDbCircle
 10
220.7384600753483
 20
90.8157816983624
 30
0.0
 40
7.580000000000098
  0
CIRCLE
  5
6DF
330
1F
100
AcDbEntity
  8
Sichtbare_Kanten_TC_020513_DIN_
  6
Continuous
 62
     7
100
AcDbCircle
 10
220.7384600753483
 20
90.8157816983624
 30
0.0
 40
10.57999999999598
  0
SPLINE
  5
6E0
330
1F
100
AcDbEntity
  8
Sichtbare_Kanten_TC_020513_DIN_
  6
Continuous
 62
     7
100
AcDbSpline
210
0.0
220
0.0
230
1.0
 70
     8
 71
     3
 72
    19
 73
    15
 74
    13
 42
0.000000001
 43
0.0000000001
 44
0.00000001
 40
0.0
 40
0.0
 40
0.0
 40
0.0
 40
0.3474606674151473
 40
0.6949175350301343
 40
0.8665696488952592
 40
1.03822119165626
 40
1.207484861390692
 40
1.376745209810215
 40
1.543251855853741
 40
1.709751057160046
 40
1.873443934533448
 40
2.037147336109598
 40
2.278188137688471
 40
2.518986528947518
 40
2.518986528947518
 40
2.518986528947518
 40
2.518986528947518
 10
232.8658451254902
 20
122.0014115596834
 30
0.0
 10
232.981776895403
 20
122.0066685220754
 30
0.0
 10
233.213639166252
 20
122.017182404044
 30
0.0
 10
233.495710972423
 20
122.0882557217562
 30
0.0
 10
233.711495074257
 20
122.1688226975748
 30
0.0
 10
233.8662318225705
 20
122.2418165108198
 30
0.0
 10
234.0137086114286
 20
122.3268626808662
 30
0.0
 10
234.1521367177485
 20
122.4230224077323
 30
0.0
 10
234.2811470055802
 20
122.5300541021006
 30
0.0
 10
234.3990682956684
 20
122.646561413675
 30
0.0
 10
234.5057320212104
 20
122.7722978788106
 30
0.0
 10
234.6146071915401
 20
122.9275340372598
 30
0.0
 10
234.7197409078117
 20
123.1165564925107
 30
0.0
 10
234.7717202093218
 20
123.2688028283599
 30
0.0
 10
234.7976967780693
 20
123.3448877017374
 30
0.0
 11
232.8658451254902
 21
122.0014115596834
 31
0.0
 11
233.2122244447808
 21
122.0288028459227
 31
0.0
 11
233.5498854121421
 21
122.1107256544784
 31
0.0
 11
233.7105940312902
 21
122.1710347588795
 31
0.0
 11
233.8658451254907
 21
122.2442559993139
 31
0.0
 11
234.0124424334501
 21
122.3288693515591
 31
0.0
 11
234.1514203448638
 21
122.4254830457271
 31
0.0
 11
234.2795299161131
 21
122.5318428180591
 31
0.0
 11
234.3979340117284
 21
122.6489003016174
 31
0.0
 11
234.5037303170633
 21
122.77381026999
 31
0.0
 11
234.5978959330594
 21
122.9077193467201
 31
0.0
 11
234.7131503507869
 21
123.119419815036
 31
0.0
 11
234.7976967780693
 21
123.3448877017374
 31
0.0
  0
SPLINE
  5
6E1
330
1F
100
AcDbEntity
  8
Sichtbare_Kanten_TC_020513_DIN_
  6
Continuous
 62
     7
100
AcDbSpline
210
0.0
220
0.0
230
1.0
 70
     8
 71
     3
 72
    19
 73
    15
 74
    13
 42
0.000000001
 43
0.0000000001
 44
0.00000001
 40
0.0
 40
0.0
 40
0.0
 40
0.0
 40
0.3474606674142678
 40
0.6949175350292305
 40
0.8665696488942656
 40
1.038221191655263
 40
1.207484861389525
 40
1.376745209809082
 40
1.543251855852924
 40
1.709751057159621
 40
1.873443934533164
 40
2.037147336109218
 40
2.278188137687777
 40
2.518986528947083
 40
2.518986528947083
 40
2.518986528947083
 40
2.518986528947083
 10
232.8658451254902
 20
122.5930771261204
 30
0.0
 10
232.9817768954028
 20
122.5983340885124
 30
0.0
 10
233.2136391662513
 20
122.6088479704811
 30
0.0
 10
233.4957109724222
 20
122.6799212881932
 30
0.0
 10
233.711495074256
 20
122.7604882640119
 30
0.0
 10
233.8662318225695
 20
122.8334820772566
 30
0.0
 10
234.0137086114277
 20
122.9185282473028
 30
0.0
 10
234.1521367177478
 20
123.0146879741686
 30
0.0
 10
234.2811470055798
 20
123.1217196685373
 30
0.0
 10
234.3990682956681
 20
123.2382269801117
 30
0.0
 10
234.5057320212102
 20
123.3639634452475
 30
0.0
 10
234.61460719154
 20
123.5191996036965
 30
0.0
 10
234.719740907812
 20
123.7082220589472
 30
0.0
 10
234.7717202093212
 20
123.8604683947967
 30
0.0
 10
234.7976967780683
 20
123.9365532681744
 30
0.0
 11
232.8658451254902
 21
122.5930771261204
 31
0.0
 11
233.21222444478
 21
122.6204684123597
 31
0.0
 11
233.5498854121412
 21
122.7023912209154
 31
0.0
 11
233.7105940312892
 21
122.7627003253165
 31
0.0
 11
233.8658451254898
 21
122.8359215657507
 31
0.0
 11
234.0124424334492
 21
122.9205349179956
 31
0.0
 11
234.151420344863
 21
123.0171486121634
 31
0.0
 11
234.2795299161126
 21
123.1235083844956
 31
0.0
 11
234.3979340117282
 21
123.2405658680542
 31
0.0
 11
234.5037303170632
 21
123.3654758364269
 31
0.0
 11
234.5978959330593
 21
123.4993849131568
 31
0.0
 11
234.7131503507867
 21
123.7110853814724
 31
0.0
 11
234.7976967780683
 21
123.9365532681744
 31
0.0
  0
SPLINE
  5
6E2
330
1F
100
AcDbEntity
  8
Sichtbare_Kanten_TC_020513_DIN_
  6
Continuous
 62
     7
100
AcDbSpline
210
0.0
220
0.0
230
1.0
 70
     8
 71
     3
 72
    19
 73
    15
 74
    13
 42
0.000000001
 43
0.0000000001
 44
0.00000001
 40
0.0
 40
0.0
 40
0.0
 40
0.0
 40
0.3221862205368706
 40
0.6443862618343221
 40
0.8094705328396592
 40
0.9745562229281264
 40
1.142463280812252
 40
1.31037490956759
 40
1.480895931774272
 40
1.65141768759437
 40
1.824033462668873
 40
1.996661195040834
 40
2.257865073019282
 40
2.518894987889757
 40
2.518894987889757
 40
2.518894987889757
 40
2.518894987889757
 10
206.6792233726223
 20
123.3448877017374
 30
0.0
 10
206.7154370354998
 20
123.2434533810988
 30
0.0
 10
206.7878659282224
 20
123.0405803940633
 30
0.0
 10
206.9372575746562
 20
122.8128899505551
 30
0.0
 10
207.0776112514925
 20
122.6467137119959
 30
0.0
 10
207.1959584225478
 20
122.5298968771818
 30
0.0
 10
207.3246071923407
 20
122.4231628345324
 30
0.0
 10
207.4633872046685
 20
122.3267498476021
 30
0.0
 10
207.6105213576284
 20
122.2418906533483
 30
0.0
 10
207.7655717714223
 20
122.1688288509231
 30
0.0
 10
207.9267287094743
 20
122.1083269499528
 30
0.0
 10
208.1213022847633
 20
122.0530711593447
 30
0.0
 10
208.3498425591517
 20
122.0103276672828
 30
0.0
 10
208.5240168761646
 20
122.0043829305732
 30
0.0
 10
208.6110750252003
 20
122.0014115596834
 30
0.0
 11
206.6792233726223
 21
123.3448877017374
 31
0.0
 11
206.7994877838179
 21
123.045989001023
 31
0.0
 11
206.972770936622
 21
122.7743535523054
 31
0.0
 11
207.0794651493739
 21
122.6483806909311
 31
0.0
 11
207.1968614628266
 21
122.532314369645
 31
0.0
 11
207.3260543429341
 21
122.42506708493
 31
0.0
 11
207.463922152498
 21
122.3292193807444
 31
0.0
 11
207.6116094040668
 21
122.2439791615502
 31
0.0
 11
207.7658385017187
 21
122.1712395240703
 31
0.0
 11
207.9274481929357
 21
122.1105887720627
 31
0.0
 11
208.0934369349947
 21
122.0631749376255
 31
0.0
 11
208.3505030220934
 21
122.01686626428
 31
0.0
 11
208.6110750252003
 21
122.0014115596834
 31
0.0
  0
SPLINE
  5
6E3
330
1F
100
AcDbEntity
  8
Sichtbare_Kanten_TC_020513_DIN_
  6
Continuous
 62
     7
100
AcDbSpline
210
0.0
220
0.0
230
1.0
 70
     8
 71
     3
 72
    19
 73
    15
 74
    13
 42
0.000000001
 43
0.0000000001
 44
0.00000001
 40
0.0
 40
0.0
 40
0.0
 40
0.0
 40
0.3221862205370564
 40
0.644386261834474
 40
0.8094705328399614
 40
0.9745562229285802
 40
1.142463280812771
 40
1.310374909568117
 40
1.480895931774764
 40
1.651417687594913
 40
1.824033462669463
 40
1.99666119504153
 40
2.257865073019774
 40
2.518894987889285
 40
2.518894987889285
 40
2.518894987889285
 40
2.518894987889285
 10
206.6792233726213
 20
123.9365532681744
 30
0.0
 10
206.715437035499
 20
123.8351189475359
 30
0.0
 10
206.7878659282221
 20
123.6322459605005
 30
0.0
 10
206.9372575746556
 20
123.404555516992
 30
0.0
 10
207.0776112514922
 20
123.2383792784328
 30
0.0
 10
207.1959584225478
 20
123.1215624436188
 30
0.0
 10
207.3246071923406
 20
123.0148284009694
 30
0.0
 10
207.4633872046686
 20
122.9184154140392
 30
0.0
 10
207.6105213576284
 20
122.8335562197853
 30
0.0
 10
207.7655717714223
 20
122.7604944173601
 30
0.0
 10
207.9267287094744
 20
122.6999925163897
 30
0.0
 10
208.1213022847635
 20
122.6447367257817
 30
0.0
 10
208.3498425591514
 20
122.60199323372
 30
0.0
 10
208.5240168761639
 20
122.5960484970101
 30
0.0
 10
208.6110750251993
 20
122.5930771261204
 30
0.0
 11
206.6792233726213
 21
123.9365532681744
 31
0.0
 11
206.7994877838175
 21
123.6376545674601
 31
0.0
 11
206.9727709366215
 21
123.3660191187424
 31
0.0
 11
207.0794651493736
 21
123.2400462573681
 31
0.0
 11
207.1968614628265
 21
123.123979936082
 31
0.0
 11
207.3260543429341
 21
123.016732651367
 31
0.0
 11
207.463922152498
 21
122.9208849471814
 31
0.0
 11
207.6116094040667
 21
122.8356447279872
 31
0.0
 11
207.7658385017187
 21
122.7629050905073
 31
0.0
 11
207.9274481929358
 21
122.7022543384996
 31
0.0
 11
208.0934369349949
 21
122.6548405040624
 31
0.0
 11
208.3505030220934
 21
122.608531830717
 31
0.0
 11
208.6110750251993
 21
122.5930771261204
 31
0.0
  0
LWPOLYLINE
  5
6E4
330
1F
100
AcDbEntity
  8
Sichtbare_Kanten_TC_020513_DIN_
  6
Continuous
 62
     7
100
AcDbPolyline
 90
       25
 70
     0
 43
0.0
 10
129.4299841092863
 20
128.8532587577264
 10
129.4088745282923
 20
128.8996231247354
 10
129.3886232541843
 20
128.9463442255424
 10
129.3692279027733
 20
128.9934104372424
 10
129.3506980108063
 20
129.0408095408844
 10
129.3330335782803
 20
129.0885299135614
 10
129.3162417577543
 20
129.1365596343444
 10
129.3003249334133
 20
129.1848861862584
 10
129.2852878736293
 20
129.2334982444214
 10
129.2711353467743
 20
129.2823835898804
 10
129.2578697370333
 20
129.3315300036834
 10
129.2454958127773
 20
129.3809255649014
 10
129.2340159581943
 20
129.4305589486524
 10
129.2234444783963
 20
129.4803932000564
 10
129.2137837575713
 20
129.5303901721404
 10
129.2050361799043
 20
129.5805385400224
 10
129.1972017453943
 20
129.6308251906794
 10
129.1902876066013
 20
129.6812370110914
 10
129.1842889951503
 20
129.7317626763744
 10
129.1792082952303
 20
129.7823890735074
 10
129.1750502752103
 20
129.8331030894684
 10
129.1718125509063
 20
129.8838928033274
 10
129.1694998906893
 20
129.9347456981104
 10
129.1681099103723
 20
129.9856486607954
 10
129.1676449941433
 20
130.0365897704524
  0
LWPOLYLINE
  5
6E5
330
1F
100
AcDbEntity
  8
Sichtbare_Kanten_TC_020513_DIN_
  6
Continuous
 62
     7
100
AcDbPolyline
 90
       25
 70
     0
 43
0.0
 10
130.5676460431853
 20
130.0365897704524
 10
130.5678773092073
 20
130.0111195136474
 10
130.5685734914583
 20
129.9856677342814
 10
130.5697298215663
 20
129.9602415849134
 10
130.5713486837183
 20
129.9348464299604
 10
130.5734276937283
 20
129.9094894219804
 10
130.5759668515963
 20
129.8841765214364
 10
130.5789661573213
 20
129.8589136887954
 10
130.5824232267183
 20
129.8337074805664
 10
130.5863404439723
 20
129.8085644532604
 10
130.5907154248993
 20
129.7834899712964
 10
130.5955457853113
 20
129.7584917832774
 10
130.6008315252103
 20
129.7335746575754
 10
130.6065702604093
 20
129.7087576676774
 10
130.6127572225373
 20
129.6840598870684
 10
130.6193900274073
 20
129.6594866801664
 10
130.6264662908353
 20
129.6350440074374
 10
130.6339860128203
 20
129.6107378293444
 10
130.6419444249903
 20
129.5865747023984
 10
130.6503391431613
 20
129.5625599910184
 10
130.6591725515163
 20
129.5386996556684
 10
130.6684374975003
 20
129.5150002528594
 10
130.6781339811123
 20
129.4914671470094
 10
130.6882596181673
 20
129.4681062985824
 10
130.6988144086633
 20
129.4449242640894
  0
LWPOLYLINE
  5
6E6
330
1F
100
AcDbEntity
  8
Sichtbare_Kanten_TC_020513_DIN_
  6
Continuous
 62
     7
100
AcDbPolyline
 90
       25
 70
     0
 43
0.0
 10
129.6583271192353
 20
141.5967669774464
 10
129.7240400480073
 20
141.6885843564434
 10
129.7934723066133
 20
141.7777636338634
 10
129.8665499852933
 20
141.8641856004164
 10
129.9431586431303
 20
141.9476881314684
 10
130.0229764150423
 20
142.0279171754284
 10
130.1058554815093
 20
142.1047523309154
 10
130.1916837858003
 20
142.1781101514264
 10
130.2803492711823
 20
142.2479119588304
 10
130.3717422651093
 20
142.3140743066234
 10
130.4657483266633
 20
142.3765161324904
 10
130.5622577832973
 20
142.4351551820204
 10
130.6611561940943
 20
142.4899103928974
 10
130.7623338865083
 20
142.5406995107104
 10
130.8656001256743
 20
142.5874080945414
 10
130.9706020520963
 20
142.6298716355724
 10
131.0771918462553
 20
142.6680400659014
 10
131.1852407621183
 20
142.7018680859974
 10
131.2946129010953
 20
142.7313127805154
 10
131.4051628278533
 20
142.7563252736494
 10
131.5165805982393
 20
142.7768328477304
 10
131.6286754773893
 20
142.7928104688094
 10
131.7413115667143
 20
142.8042414475844
 10
131.8543481992523
 20
142.8111114789414
 10
131.9676470922273
 20
142.8134038735794
  0
LWPOLYLINE
  5
6E7
330
1F
100
AcDbEntity
  8
Sichtbare_Kanten_TC_020513_DIN_
  6
Continuous
 62
     7
100
AcDbPolyline
 90
       25
 70
     0
 43
0.0
 10
131.9676470922273
 20
141.4134040166304
 10
131.8959999250213
 20
141.4115693856644
 10
131.8246865438263
 20
141.4060857583454
 10
131.7538404630463
 20
141.3969805528094
 10
131.6835975812713
 20
141.3842847634714
 10
131.6140985654633
 20
141.3680270005624
 10
131.5454769300263
 20
141.3482346822184
 10
131.4778733419213
 20
141.3249388028544
 10
131.4114236997403
 20
141.2981679727004
 10
131.3463831113613
 20
141.2680092145364
 10
131.2830996679103
 20
141.2346306134624
 10
131.2216901944913
 20
141.1981191922594
 10
131.1622715162073
 20
141.1585548211504
 10
131.1049556897913
 20
141.1160209466384
 10
131.0498571561613
 20
141.0705998231334
 10
130.9970879720493
 20
141.0223725129534
 10
130.9467625783723
 20
140.9714224625994
 10
130.8990478681363
 20
140.9178927232194
 10
130.8542132543363
 20
140.8620896626874
 10
130.8123445676603
 20
140.8041503716874
 10
130.7735181020533
 20
140.7441952516004
 10
130.7378029989043
 20
140.6823458959034
 10
130.7052707837863
 20
140.6187203217914
 10
130.6759953664583
 20
140.5534413148334
 10
130.6500506566803
 20
140.4866280843184
  0
LWPOLYLINE
  5
6E8
330
1F
100
AcDbEntity
  8
Sichtbare_Kanten_TC_020513_DIN_
  6
Continuous
 62
     7
100
AcDbPolyline
 90
       25
 70
     0
 43
0.0
 10
130.6500506566803
 20
140.4866280843184
 10
130.6451559232513
 20
140.4727366258074
 10
130.6398582624233
 20
140.4570892144604
 10
130.6342411207003
 20
140.4397812177104
 10
130.6283950971403
 20
140.4209127713604
 10
130.6224036382473
 20
140.4005816270274
 10
130.6163597272673
 20
140.3788855363294
 10
130.6103468107023
 20
140.3559246350694
 10
130.6044531034273
 20
140.3317954827714
 10
130.5987668203153
 20
140.3065958310534
 10
130.5933761762423
 20
140.2804270078114
 10
130.5883693860803
 20
140.2533843804764
 10
130.5838871167933
 20
140.2261379052564
 10
130.5800962613863
 20
140.2002504159374
 10
130.5769467519563
 20
140.1758137036724
 10
130.5743789838593
 20
140.1528373052044
 10
130.5723309682643
 20
140.1313307572764
 10
130.5707478688993
 20
140.1113059808184
 10
130.5695700811183
 20
140.0927701283854
 10
130.5687332319063
 20
140.0757339288164
 10
130.5681848691743
 20
140.0602081109454
 10
130.5678606199063
 20
140.0462022115154
 10
130.5677008794583
 20
140.0337269593644
 10
130.5676508115573
 20
140.0227906991404
 10
130.5676460431853
 20
140.0134041596814
  0
LWPOLYLINE
  5
6E9
330
1F
100
AcDbEntity
  8
Sichtbare_Kanten_TC_020513_DIN_
  6
Continuous
 62
     7
100
AcDbPolyline
 90
       25
 70
     0
 43
0.0
 10
128.2508921788973
 20
141.8177619267864
 10
128.2309460805693
 20
141.8266907025744
 10
128.2109737561983
 20
141.8356182862684
 10
128.1909823583403
 20
141.8445458699624
 10
128.1709671186243
 20
141.8534734536574
 10
128.1509328054233
 20
141.8623998452594
 10
128.1308794187343
 20
141.8713274289534
 10
128.1108045743743
 20
141.8802538205554
 10
128.0907130407133
 20
141.8891814042494
 10
128.0706048177523
 20
141.8981077958514
 10
128.0504799054903
 20
141.9070353795454
 10
128.0303383039273
 20
141.9159641553324
 10
128.0101800130643
 20
141.9248929311204
 10
127.9900121854583
 20
141.9338205148144
 10
127.9698324369233
 20
141.9427492906024
 10
127.9496431516443
 20
141.9516768742964
 10
127.9294467138093
 20
141.9606044579914
 10
127.9092407392303
 20
141.9695308495924
 10
127.8890276120943
 20
141.9784584332864
 10
127.8688073324003
 20
141.9873848248884
 10
127.8485846685213
 20
141.9963112164904
 10
127.8283548520843
 20
142.0052388001844
 10
127.8081202672763
 20
142.0141663838794
 10
127.7878856824673
 20
142.0230951596664
 10
127.7676463292873
 20
142.0320227433604
  0
LWPOLYLINE
  5
6EA
330
1F
100
AcDbEntity
  8
Sichtbare_Kanten_TC_020513_DIN_
  6
Continuous
 62
     7
100
AcDbPolyline
 90
       25
 70
     0
 43
0.0
 10
130.5676460431853
 20
140.9209766675394
 10
130.5676031278413
 20
140.9342518140244
 10
130.5674743818083
 20
140.9475269605084
 10
130.5672621892733
 20
140.9608009149004
 10
130.5669617818633
 20
140.9740748692914
 10
130.5665779279503
 20
140.9873476315904
 10
130.5661082433503
 20
141.0006215859814
 10
130.5655527280603
 20
141.0138955403734
 10
130.5649113820833
 20
141.0271683026714
 10
130.5641842054163
 20
141.0404422570634
 10
130.5633735822473
 20
141.0537162114544
 10
130.5624771283903
 20
141.0669913579394
 10
130.5614948438443
 20
141.0802653123304
 10
130.5604267286103
 20
141.0935404588154
 10
130.5592727826873
 20
141.1068156052994
 10
130.5580353902613
 20
141.1200895596904
 10
130.5567121671473
 20
141.1333635140824
 10
130.5553054975313
 20
141.1466362763804
 10
130.5538106130403
 20
141.1599102307724
 10
130.5522322820463
 20
141.1731841851634
 10
130.5505705045503
 20
141.1864569474624
 10
130.5488205121793
 20
141.1997309018534
 10
130.5469870733063
 20
141.2130048562454
 10
130.5450701879303
 20
141.2262800027294
 10
130.5430674718653
 20
141.2395551492144
  0
LWPOLYLINE
  5
6EB
330
1F
100
AcDbEntity
  8
Sichtbare_Kanten_TC_020513_DIN_
  6
Continuous
 62
     7
100
AcDbPolyline
 90
       25
 70
     0
 43
0.0
 10
130.5430674718653
 20
141.2395551492144
 10
130.5413174794953
 20
141.2509169866014
 10
130.5391431020533
 20
141.2645294953754
 10
130.5364275144373
 20
141.2801184941694
 10
130.5330586599153
 20
141.2974157620834
 10
130.5289268659393
 20
141.3161495019364
 10
130.5239129232203
 20
141.3360491086404
 10
130.5179119275843
 20
141.3568451692034
 10
130.5108022855563
 20
141.3782646943494
 10
130.5024790929593
 20
141.4000382710864
 10
130.4928231405063
 20
141.4218952943254
 10
130.4817271398343
 20
141.4435651589794
 10
130.4690742658413
 20
141.4647772599624
 10
130.4547500776093
 20
141.4852598000924
 10
130.4386782811923
 20
141.5047016431254
 10
130.4211926626003
 20
141.5223887254164
 10
130.4024219678683
 20
141.5381529618664
 10
130.3823805021083
 20
141.5520074654984
 10
130.3610849546233
 20
141.5639689256114
 10
130.3385496305263
 20
141.5740516473224
 10
130.3147888349333
 20
141.5822675515574
 10
130.2898192571443
 20
141.5886333276194
 10
130.2636528180873
 20
141.5931620885294
 10
130.2363062070643
 20
141.5958681394024
 10
130.2077937291903
 20
141.5967669774464
  0
LWPOLYLINE
  5
6EC
330
1F
100
AcDbEntity
  8
Sichtbare_Kanten_TC_020513_DIN_
  6
Continuous
 62
     7
100
AcDbPolyline
 90
       25
 70
     0
 43
0.0
 10
129.2601442502773
 20
141.5967669774464
 10
129.2123866246973
 20
141.5973058034344
 10
129.1640973256863
 20
141.5989258576794
 10
129.1153073476593
 20
141.6016319085524
 10
129.0660524534023
 20
141.6054287244244
 10
129.0163684057033
 20
141.6103186894824
 10
128.9662909673493
 20
141.6163077641894
 10
128.9158487485683
 20
141.6233995248244
 10
128.8650822805203
 20
141.6315987397594
 10
128.8140225576203
 20
141.6409089852734
 10
128.7627363370693
 20
141.6513302613664
 10
128.7124848531523
 20
141.6626122285294
 10
128.6639619039333
 20
141.6745260049274
 10
128.6172628568453
 20
141.6869356919694
 10
128.5724806951323
 20
141.6997077752514
 10
128.5297107862273
 20
141.7127075482774
 10
128.4890461133753
 20
141.7258003045484
 10
128.4505820440093
 20
141.7388525296614
 10
128.4144163297453
 20
141.7517283250254
 10
128.3806371854583
 20
141.7642941762374
 10
128.3493423627653
 20
141.7764141847064
 10
128.3206272290983
 20
141.7879560281204
 10
128.2945847677033
 20
141.7987838078904
 10
128.2713079618253
 20
141.8087640096114
 10
128.2508921788973
 20
141.8177619267864
  0
LWPOLYLINE
  5
6ED
330
1F
100
AcDbEntity
  8
Sichtbare_Kanten_TC_020513_DIN_
  6
Continuous
 62
     7
100
AcDbPolyline
 90
       25
 70
     0
 43
0.0
 10
47.10319997537522
 20
129.4449242640894
 10
47.11375715005784
 20
129.4681062985824
 10
47.12388517129801
 20
129.4914671470094
 10
47.13357927072428
 20
129.5150002528594
 10
47.14284421670823
 20
129.5386996556684
 10
47.15167524087809
 20
129.5625599910184
 10
47.16007234323411
 20
129.5865747023984
 10
47.16803075540452
 20
129.6107378293444
 10
47.17555047738944
 20
129.6350440074374
 10
47.18262674081711
 20
129.6594866801664
 10
47.18925954568772
 20
129.6840598870684
 10
47.1954488920012
 20
129.7087576676774
 10
47.20118524301444
 20
129.7335746575754
 10
47.2064733670988
 20
129.7584917832774
 10
47.21130372751139
 20
129.7834899712964
 10
47.21567632425223
 20
129.8085644532604
 10
47.21959115732102
 20
129.8337074805664
 10
47.22305299508952
 20
129.8589136887954
 10
47.22605230081473
 20
129.8841765214364
 10
47.22858907449631
 20
129.9094894219804
 10
47.23066808450614
 20
129.9348464299604
 10
47.23228933084391
 20
129.9602415849134
 10
47.23344327676682
 20
129.9856677342814
 10
47.2341394590178
 20
130.0111195136474
 10
47.23437310922532
 20
130.0365897704524
  0
LWPOLYLINE
  5
6EE
330
1F
100
AcDbEntity
  8
Sichtbare_Kanten_TC_020513_DIN_
  6
Continuous
 62
     7
100
AcDbPolyline
 90
       25
 70
     0
 43
0.0
 10
48.63437177408133
 20
130.0365897704524
 10
48.63390924203782
 20
129.9856486607954
 10
48.63251687753581
 20
129.9347456981104
 10
48.63020421731864
 20
129.8838928033274
 10
48.62696649301444
 20
129.8331030894684
 10
48.62280847299479
 20
129.7823890735074
 10
48.61773015725998
 20
129.7317626763744
 10
48.61173154580979
 20
129.6812370110914
 10
48.60481263864421
 20
129.6308251906794
 10
48.59698297250651
 20
129.5805385400224
 10
48.58823301065348
 20
129.5303901721404
 10
48.57857228982829
 20
129.4803932000564
 10
48.56800081003104
 20
129.4305589486524
 10
48.55652333963303
 20
129.3809255649014
 10
48.5441494153776
 20
129.3315300036834
 10
48.53088380563639
 20
129.2823835898804
 10
48.51673127878104
 20
129.2334982444214
 10
48.5016918348112
 20
129.1848861862584
 10
48.48577501047043
 20
129.1365596343444
 10
48.4689855741301
 20
129.0885299135614
 10
48.45131875741862
 20
129.0408095408844
 10
48.4327888654509
 20
128.9934104372424
 10
48.41339589822673
 20
128.9463442255424
 10
48.39313985574631
 20
128.8996231247354
 10
48.37203504312419
 20
128.8532587577264
  0
LWPOLYLINE
  5
6EF
330
1F
100
AcDbEntity
  8
Sichtbare_Kanten_TC_020513_DIN_
  6
Continuous
 62
     7
100
AcDbPolyline
 90
       25
 70
     0
 43
0.0
 10
47.1519661115446
 20
140.4866280843184
 10
47.1260261701384
 20
140.5534353543684
 10
47.0967579053679
 20
140.6186988641184
 10
47.06424237955002
 20
140.6822982121874
 10
47.02855111825852
 20
140.7441141892834
 10
46.98975564706711
 20
140.8040275861184
 10
46.94793225992112
 20
140.8619191934034
 10
46.90315725076579
 20
140.9176698018474
 10
46.85550214517502
 20
140.9711590100694
 10
46.80513383615403
 20
141.0221770097184
 10
46.75232888925461
 20
141.0704543878004
 10
46.69720651376633
 20
141.1159065057204
 10
46.63989068735032
 20
141.1584546853464
 10
46.58048631418131
 20
141.1980190564554
 10
46.51911260354899
 20
141.2345221330094
 10
46.4558887647429
 20
141.2678828526904
 10
46.3909244703093
 20
141.2980237294604
 10
46.32441999185471
 20
141.3248362828654
 10
46.25674249399089
 20
141.3481703092024
 10
46.18806363809489
 20
141.3679888535904
 10
46.11851217019944
 20
141.3842656899854
 10
46.04823114145194
 20
141.3969734002514
 10
45.97735406625651
 20
141.4060833741594
 10
45.9060239957609
 20
141.4115693856644
 10
45.83436967599783
 20
141.4134040166304
  0
LWPOLYLINE
  5
6F0
330
1F
100
AcDbEntity
  8
Sichtbare_Kanten_TC_020513_DIN_
  6
Continuous
 62
     7
100
AcDbPolyline
 90
       25
 70
     0
 43
0.0
 10
45.83436967599783
 20
142.8134038735794
 10
45.94769956338791
 20
142.8111102868484
 10
46.06066228616623
 20
142.8042450238634
 10
46.17312432992839
 20
142.7928366948534
 10
46.2849474118986
 20
142.7769127179544
 10
46.39599801767258
 20
142.7564993192124
 10
46.50613786447428
 20
142.7316251088544
 10
46.61523343789963
 20
142.7023175050184
 10
46.72314645517258
 20
142.6686027337474
 10
46.82974340188889
 20
142.6305082131784
 10
46.9348812269011
 20
142.5880649377274
 10
47.03815461862473
 20
142.5414290715624
 10
47.13930131662283
 20
142.4907317449024
 10
47.23821641672043
 20
142.4360516358774
 10
47.33477117288498
 20
142.3774662305284
 10
47.42886544931321
 20
142.3150530148904
 10
47.52037049997239
 20
142.2488906670974
 10
47.60918142068772
 20
142.1790566731854
 10
47.6951790021696
 20
142.1056273271014
 10
47.77824880350022
 20
142.0286836911604
 10
47.85825731027512
 20
141.9483163644244
 10
47.9349279569426
 20
141.8648019124434
 10
48.00811292398362
 20
141.7782988835734
 10
48.07773114908133
 20
141.6889181424544
 10
48.14369203317551
 20
141.5967669774464
  0
LWPOLYLINE
  5
6F1
330
1F
100
AcDbEntity
  8
Sichtbare_Kanten_TC_020513_DIN_
  6
Continuous
 62
     7
100
AcDbPolyline
 90
       25
 70
     0
 43
0.0
 10
47.23437310922532
 20
140.0134041596814
 10
47.23436834085373
 20
140.0227906991404
 10
47.23431588876633
 20
140.0337269593644
 10
47.23415853250413
 20
140.0462022115154
 10
47.23383428323649
 20
140.0602081109454
 10
47.23328115213303
 20
140.0757339288164
 10
47.23244668710612
 20
140.0927701283854
 10
47.23126889932541
 20
140.1113059808184
 10
47.22968579996024
 20
140.1313307572764
 10
47.22764016855149
 20
140.1528373052044
 10
47.22507001626883
 20
140.1758137036724
 10
47.22192289102463
 20
140.2002504159374
 10
47.21813203561692
 20
140.2261379052564
 10
47.21364976632981
 20
140.2533843804764
 10
47.20863820779709
 20
140.2804270078114
 10
47.2032499479094
 20
140.3065958310534
 10
47.19756604898362
 20
140.3317954827714
 10
47.19167234170823
 20
140.3559246350694
 10
47.18565942514329
 20
140.3788855363294
 10
47.17961312997721
 20
140.4005816270274
 10
47.17362405527024
 20
140.4209127713604
 10
47.16777803171061
 20
140.4397812177104
 10
47.16216088998704
 20
140.4570892144604
 10
47.1568632291594
 20
140.4727366258074
 10
47.1519661115446
 20
140.4866280843184
  0
LWPOLYLINE
  5
6F2
330
1F
100
AcDbEntity
  8
Sichtbare_Kanten_TC_020513_DIN_
  6
Continuous
 62
     7
100
AcDbPolyline
 90
       25
 70
     0
 43
0.0
 10
47.59422303903489
 20
141.5967669774464
 10
47.5686121152678
 20
141.5960433770584
 10
47.54392625558762
 20
141.5938654233384
 10
47.52018453348069
 20
141.5902223874494
 10
47.4973964856901
 20
141.5851059247424
 10
47.4755716489592
 20
141.5785041142864
 10
47.45472432840251
 20
141.5704098035264
 10
47.43487359750651
 20
141.5608122636244
 10
47.41601945627122
 20
141.5497007657454
 10
47.39818574655442
 20
141.5370669652384
 10
47.3813772367277
 20
141.5229013253614
 10
47.36561300027751
 20
141.5071907330914
 10
47.35087873208909
 20
141.4899125386644
 10
47.33716012704758
 20
141.4710405160354
 10
47.32444764840989
 20
141.4505496312544
 10
47.31273175943284
 20
141.4284184266494
 10
47.30199815500168
 20
141.4046206761764
 10
47.29252340066819
 20
141.3800504495074
 10
47.2844791578093
 20
141.3558199693124
 10
47.27774144876389
 20
141.3323214341564
 10
47.27217199075614
 20
141.3099482346934
 10
47.26763726938151
 20
141.2890937615794
 10
47.26401330697922
 20
141.2701478291914
 10
47.26116182077311
 20
141.2535038281844
 10
47.25894929635911
 20
141.2395551492144
  0
LWPOLYLINE
  5
6F3
330
1F
100
AcDbEntity
  8
Sichtbare_Kanten_TC_020513_DIN_
  6
Continuous
 62
     7
100
AcDbPolyline
 90
       25
 70
     0
 43
0.0
 10
47.25894929635911
 20
141.2395551492144
 10
47.2569465802946
 20
141.2262800027294
 10
47.25502969491862
 20
141.2130048562454
 10
47.25319387185959
 20
141.1997309018534
 10
47.25144864786051
 20
141.1864569474624
 10
47.24978448617839
 20
141.1731841851634
 10
47.24820615518479
 20
141.1599102307724
 10
47.24671365487961
 20
141.1466362763804
 10
47.24530221689133
 20
141.1333635140824
 10
47.24398137796311
 20
141.1200895596904
 10
47.24274160135173
 20
141.1068156052994
 10
47.24159242380051
 20
141.0935404588154
 10
47.24052430856614
 20
141.0802653123304
 10
47.23954202402024
 20
141.0669913579394
 10
47.23864557016282
 20
141.0537162114544
 10
47.23783017862229
 20
141.0404422570634
 10
47.23710538614182
 20
141.0271683026714
 10
47.23646642434983
 20
141.0138955403734
 10
47.23590852487473
 20
141.0006215859814
 10
47.23544122445969
 20
140.9873476315904
 10
47.23505498636149
 20
140.9740748692914
 10
47.23475457895194
 20
140.9608009149004
 10
47.23454000223069
 20
140.9475269605084
 10
47.2344160245695
 20
140.9342518140244
 10
47.23437310922532
 20
140.9209766675394
  0
LWPOLYLINE
  5
6F4
330
1F
100
AcDbEntity
  8
Sichtbare_Kanten_TC_020513_DIN_
  6
Continuous
 62
     7
100
AcDbPolyline
 90
       25
 70
     0
 43
0.0
 10
50.03437043893723
 20
142.0320227433604
 10
50.01413346994309
 20
142.0230951596664
 10
49.99389650094889
 20
142.0141663838794
 10
49.97366430032639
 20
142.0052388001844
 10
49.95343209970383
 20
141.9963112164904
 10
49.93320943582444
 20
141.9873848248884
 10
49.91299154031663
 20
141.9784584332864
 10
49.8927784131804
 20
141.9695308495924
 10
49.87257005441569
 20
141.9606044579914
 10
49.85237600076579
 20
141.9516768742964
 10
49.83218671548752
 20
141.9427492906024
 10
49.81200696695231
 20
141.9338205148144
 10
49.79183675516032
 20
141.9248929311204
 10
49.77168084848313
 20
141.9159641553324
 10
49.75153924692063
 20
141.9070353795454
 10
49.73141195047282
 20
141.8981077958514
 10
49.71130372751139
 20
141.8891814042494
 10
49.6912145780363
 20
141.8802538205554
 10
49.671139733676
 20
141.8713274289534
 10
49.65108396280203
 20
141.8623998452594
 10
49.63105203378581
 20
141.8534734536574
 10
49.6110344098845
 20
141.8445458699624
 10
49.59104062784098
 20
141.8356182862684
 10
49.57107068765549
 20
141.8266907025744
 10
49.5511245893278
 20
141.8177619267864
  0
LWPOLYLINE
  5
6F5
330
1F
100
AcDbEntity
  8
Sichtbare_Kanten_TC_020513_DIN_
  6
Continuous
 62
     7
100
AcDbPolyline
 90
       25
 70
     0
 43
0.0
 10
49.5511245893278
 20
141.8177619267864
 10
49.53063489663981
 20
141.8087318231034
 10
49.50727941263114
 20
141.7987182427814
 10
49.48114873636149
 20
141.7878547002244
 10
49.4523430036345
 20
141.7762794782084
 10
49.4209480451384
 20
141.7641237069534
 10
49.38706876504801
 20
141.7515268613264
 10
49.3507957624235
 20
141.7386200715464
 10
49.31221963632493
 20
141.7255416203904
 10
49.2714405225554
 20
141.7124262143534
 10
49.22855378854661
 20
141.6994073678424
 10
49.18365003335862
 20
141.6866221715374
 10
49.1368293927946
 20
141.6742041398454
 10
49.08818246591471
 20
141.6622903634474
 10
49.03780462015061
 20
141.6510155488414
 10
48.98664952981864
 20
141.6406491090224
 10
48.9357471631804
 20
141.6313925076884
 10
48.8851404355803
 20
141.6232421685624
 10
48.8348531888762
 20
141.6161909390854
 10
48.78492833841233
 20
141.6102376271654
 10
48.73539449441819
 20
141.6053762723374
 10
48.68628503549479
 20
141.6016032983234
 10
48.63764287698649
 20
141.5989139367504
 10
48.5894918607512
 20
141.5973034192484
 10
48.54187490213303
 20
141.5967669774464
  0
LWPOLYLINE
  5
6F6
330
1F
100
AcDbEntity
  8
Sichtbare_Kanten_TC_020513_DIN_
  6
Continuous
 62
     7
100
AcDbPolyline
 90
       25
 70
     0
 43
0.0
 10
236.4262428397803
 20
129.4449242640894
 10
236.4360704536113
 20
129.4681062985824
 10
236.4458944911633
 20
129.4914671470094
 10
236.4557161445293
 20
129.5150002528594
 10
236.4655342216163
 20
129.5386996556684
 10
236.4753511066113
 20
129.5625599910184
 10
236.4851679916052
 20
129.5865747023984
 10
236.4949836845073
 20
129.6107378293444
 10
236.5048005695014
 20
129.6350440074374
 10
236.5146186465893
 20
129.6594866801664
 10
236.5244402999553
 20
129.6840598870684
 10
236.5342643375073
 20
129.7087576676774
 10
236.5440931434303
 20
129.7335746575754
 10
236.5539207572613
 20
129.7584917832774
 10
236.5637447948133
 20
129.7834899712964
 10
236.5735664481793
 20
129.8085644532604
 10
236.5833845252664
 20
129.8337074805664
 10
236.5932014102613
 20
129.8589136887954
 10
236.6030182952554
 20
129.8841765214364
 10
236.6128339881573
 20
129.9094894219804
 10
236.6226508731513
 20
129.9348464299604
 10
236.6324689502393
 20
129.9602415849134
 10
236.6422906036053
 20
129.9856677342814
 10
236.6521146411573
 20
130.0111195136474
 10
236.6619422549873
 20
130.0365897704524
  0
LWPOLYLINE
  5
6F7
330
1F
100
AcDbEntity
  8
Sichtbare_Kanten_TC_020513_DIN_
  6
Continuous
 62
     7
100
AcDbPolyline
 90
       25
 70
     0
 43
0.0
 10
236.6619422549873
 20
130.0365897704524
 10
236.6521146411573
 20
129.9856486607954
 10
236.6422906036053
 20
129.9347456981104
 10
236.6324689502393
 20
129.8838928033274
 10
236.6226508731523
 20
129.8331030894684
 10
236.6128339881573
 20
129.7823890735074
 10
236.6030182952563
 20
129.7317626763744
 10
236.5932014102613
 20
129.6812370110914
 10
236.5833845252673
 20
129.6308251906794
 10
236.5735664481793
 20
129.5805385400224
 10
236.5637447948133
 20
129.5303901721404
 10
236.5539207572613
 20
129.4803932000564
 10
236.5440931434313
 20
129.4305589486524
 10
236.5342643375073
 20
129.3809255649014
 10
236.5244402999553
 20
129.3315300036834
 10
236.5146186465893
 20
129.2823835898804
 10
236.5048005695023
 20
129.2334982444214
 10
236.4949836845073
 20
129.1848861862584
 10
236.4851679916063
 20
129.1365596343444
 10
236.4753511066113
 20
129.0885299135614
 10
236.4655342216174
 20
129.0408095408844
 10
236.4557161445293
 20
128.9934104372424
 10
236.4458944911633
 20
128.9463442255424
 10
236.4360704536113
 20
128.8996231247354
 10
236.4262428397813
 20
128.8532587577264
  0
LWPOLYLINE
  5
6F8
330
1F
100
AcDbEntity
  8
Sichtbare_Kanten_TC_020513_DIN_
  6
Continuous
 62
     7
100
AcDbPolyline
 90
       25
 70
     0
 43
0.0
 10
243.1116571540503
 20
141.5967669774464
 10
243.0650892371803
 20
141.5960433770584
 10
243.0180850143113
 20
141.5938654233384
 10
242.9707064742713
 20
141.5902223874494
 10
242.9230156058943
 20
141.5851059247424
 10
242.8750743980083
 20
141.5785041142864
 10
242.8269472236313
 20
141.5704098035264
 10
242.7786913032202
 20
141.5608122636244
 10
242.7303710097943
 20
141.5497007657454
 10
242.6820483321823
 20
141.5370669652384
 10
242.6337852592143
 20
141.5229013253614
 10
242.5856461639083
 20
141.5071907330914
 10
242.5377240295083
 20
141.4899125386644
 10
242.4901189918193
 20
141.4710405160354
 10
242.4429216499003
 20
141.4505496312544
 10
242.3962249869973
 20
141.4284184266494
 10
242.3501267547283
 20
141.4046206761764
 10
242.3063316459333
 20
141.3800504495074
 10
242.2663989181194
 20
141.3558199693124
 10
242.2303357238442
 20
141.3323214341564
 10
242.1981635207803
 20
141.3099482346934
 10
242.1698942298563
 20
141.2890937615794
 10
242.1455397720013
 20
141.2701478291914
 10
242.1251216048873
 20
141.2535038281844
 10
242.1086492652564
 20
141.2395551492144
  0
LWPOLYLINE
  5
6F9
330
1F
100
AcDbEntity
  8
Sichtbare_Kanten_TC_020513_DIN_
  6
Continuous
 62
     7
100
AcDbPolyline
 90
       25
 70
     0
 43
0.0
 10
241.9235553855573
 20
141.2395551492144
 10
241.9307842368763
 20
141.2518337060374
 10
241.9394054526962
 20
141.2659802724284
 10
241.9494214172043
 20
141.2817707349224
 10
241.9608321304003
 20
141.2989833642414
 10
241.9736375922833
 20
141.3173928548264
 10
241.9878425712263
 20
141.3367750932144
 10
242.0034446830434
 20
141.3569083501264
 10
242.0204463119183
 20
141.3775673200054
 10
242.0388498420393
 20
141.3985278893874
 10
242.0586552734052
 20
141.4195683289934
 10
242.0798626060163
 20
141.4404645253584
 10
242.1024742240583
 20
141.4609911729264
 10
242.1264686698593
 20
141.4809086610244
 10
242.1513524169603
 20
141.4996805478504
 10
242.1769061202683
 20
141.5170767594744
 10
242.2030916328113
 20
141.5330114652084
 10
242.2298636550583
 20
141.5473952580854
 10
242.2571792716663
 20
141.5601411153244
 10
242.2849741096173
 20
141.5711524774004
 10
242.3129596824323
 20
141.5802696038644
 10
242.3410215491924
 20
141.5874293137954
 10
242.3690977210674
 20
141.5925922681254
 10
242.3971309775984
 20
141.5957179356974
 10
242.4250593299543
 20
141.5967669774464
  0
LWPOLYLINE
  5
6FA
330
1F
100
AcDbEntity
  8
Sichtbare_Kanten_TC_020513_DIN_
  6
Continuous
 62
     7
100
AcDbPolyline
 90
       25
 70
     0
 43
0.0
 10
242.1086492652564
 20
141.2395551492144
 10
242.0933070296913
 20
141.2262800027294
 10
242.0779576415693
 20
141.2130048562454
 10
242.0625963325173
 20
141.1997309018534
 10
242.0472254867233
 20
141.1864569474624
 10
242.0318451041853
 20
141.1731841851634
 10
242.0164575690894
 20
141.1599102307724
 10
242.0010604972513
 20
141.1466362763804
 10
241.9856562728552
 20
141.1333635140824
 10
241.9702425117163
 20
141.1200895596904
 10
241.9548239822063
 20
141.1068156052994
 10
241.9393959159523
 20
141.0935404588154
 10
241.9239606971414
 20
141.0802653123304
 10
241.9085230941443
 20
141.0669913579394
 10
241.8930783385903
 20
141.0537162114544
 10
241.8776288146643
 20
141.0404422570634
 10
241.8621769065533
 20
141.0271683026714
 10
241.8467202300703
 20
141.0138955403734
 10
241.8312611694013
 20
141.0006215859814
 10
241.8157997245464
 20
140.9873476315904
 10
241.8003358955053
 20
140.9740748692914
 10
241.7848696822793
 20
140.9608009149004
 10
241.7694010848673
 20
140.9475269605084
 10
241.7539301032693
 20
140.9342518140244
 10
241.7384591216713
 20
140.9209766675394
  0
LWPOLYLINE
  5
6FB
330
1F
100
AcDbEntity
  8
Sichtbare_Kanten_TC_020513_DIN_
  6
Continuous
 62
     7
100
AcDbPolyline
 90
       25
 70
     0
 43
0.0
 10
241.7384591216713
 20
140.9209766675394
 10
241.7461958045644
 20
140.9342518140244
 10
241.7539301032703
 20
140.9475269605084
 10
241.7616644019763
 20
140.9608009149004
 10
241.7693987006823
 20
140.9740748692914
 10
241.7771306152023
 20
140.9873476315904
 10
241.7848601455364
 20
141.0006215859814
 10
241.7925896758713
 20
141.0138955403734
 10
241.8003192062053
 20
141.0271683026714
 10
241.8080439681683
 20
141.0404422570634
 10
241.8157687301313
 20
141.0537162114544
 10
241.8234911079083
 20
141.0669913579394
 10
241.8312111015003
 20
141.0802653123304
 10
241.8389287109052
 20
141.0935404588154
 10
241.8466415519393
 20
141.1068156052994
 10
241.8543520087873
 20
141.1200895596904
 10
241.8620576972643
 20
141.1333635140824
 10
241.8697610015543
 20
141.1466362763804
 10
241.8774595374743
 20
141.1599102307724
 10
241.8851533050213
 20
141.1731841851634
 10
241.8928423041973
 20
141.1864569474624
 10
241.9005289191873
 20
141.1997309018534
 10
241.9082083816203
 20
141.2130048562454
 10
241.9158830756823
 20
141.2262800027294
 10
241.9235553855573
 20
141.2395551492144
  0
LWPOLYLINE
  5
6FC
330
1F
100
AcDbEntity
  8
Sichtbare_Kanten_TC_020513_DIN_
  6
Continuous
 62
     7
100
AcDbPolyline
 90
       25
 70
     0
 43
0.0
 10
244.5384612197553
 20
142.0320227433604
 10
244.5383873099963
 20
142.0230951596664
 10
244.5381679649033
 20
142.0141663838794
 10
244.5378008002913
 20
142.0052388001844
 10
244.5372905845323
 20
141.9963112164904
 10
244.5366325492543
 20
141.9873848248884
 10
244.5358266944573
 20
141.9784584332864
 10
244.5348777885124
 20
141.9695308495924
 10
244.5337810630483
 20
141.9606044579914
 10
244.5325389022514
 20
141.9516768742964
 10
244.5311513061203
 20
141.9427492906024
 10
244.5296158904714
 20
141.9338205148144
 10
244.5279350394883
 20
141.9248929311204
 10
244.5261111373583
 20
141.9159641553324
 10
244.5241394157093
 20
141.9070353795454
 10
244.5220222587263
 20
141.8981077958514
 10
244.5197596664113
 20
141.8891814042494
 10
244.5173516387624
 20
141.8802538205554
 10
244.5148005599653
 20
141.8713274289534
 10
244.5121016616503
 20
141.8623998452594
 10
244.5092597121873
 20
141.8534734536574
 10
244.5062723273913
 20
141.8445458699624
 10
244.5031418914472
 20
141.8356182862684
 10
244.4998636359853
 20
141.8266907025744
 10
244.4964423293743
 20
141.8177619267864
  0
LWPOLYLINE
  5
6FD
330
1F
100
AcDbEntity
  8
Sichtbare_Kanten_TC_020513_DIN_
  6
Continuous
 62
     7
100
AcDbPolyline
 90
       25
 70
     0
 43
0.0
 10
243.1174507255233
 20
141.8177619267864
 10
243.1191625709213
 20
141.8266907025744
 10
243.1208005065603
 20
141.8356182862684
 10
243.1223669166242
 20
141.8445458699624
 10
243.1238594169303
 20
141.8534734536574
 10
243.1252803916613
 20
141.8623998452594
 10
243.1266298408193
 20
141.8713274289534
 10
243.1279053802173
 20
141.8802538205554
 10
243.1291093940413
 20
141.8891814042494
 10
243.1302418822923
 20
141.8981077958514
 10
243.1313004607833
 20
141.9070353795454
 10
243.1322851295153
 20
141.9159641553324
 10
243.1331982726733
 20
141.9248929311204
 10
243.1340375060713
 20
141.9338205148144
 10
243.1348052138963
 20
141.9427492906024
 10
243.1354990119613
 20
141.9516768742964
 10
243.1361212844533
 20
141.9606044579914
 10
243.1366696471853
 20
141.9695308495924
 10
243.1371441001573
 20
141.9784584332864
 10
243.1375470275563
 20
141.9873848248884
 10
243.1378760451952
 20
141.9963112164904
 10
243.1381311530753
 20
142.0052388001844
 10
243.1383147353812
 20
142.0141663838794
 10
243.1384244079273
 20
142.0230951596664
 10
243.1384601707143
 20
142.0320227433604
  0
LWPOLYLINE
  5
6FE
330
1F
100
AcDbEntity
  8
Sichtbare_Kanten_TC_020513_DIN_
  6
Continuous
 62
     7
100
AcDbPolyline
 90
       25
 70
     0
 43
0.0
 10
244.4964423293743
 20
141.8177619267864
 10
244.4928040618573
 20
141.8087318231034
 10
244.4884934539472
 20
141.7987182427814
 10
244.4834342116993
 20
141.7878547002244
 10
244.4775452727953
 20
141.7762794782084
 10
244.4707431907333
 20
141.7641237069534
 10
244.4629469031973
 20
141.7515268613264
 10
244.4540777320543
 20
141.7386200715464
 10
244.4440546149893
 20
141.7255416203904
 10
244.4327941054983
 20
141.7124262143534
 10
244.4202151412644
 20
141.6994073678424
 10
244.4062390441573
 20
141.6866221715374
 10
244.3907847518603
 20
141.6742041398454
 10
244.3737688178694
 20
141.6622903634474
 10
244.3551101798693
 20
141.6510155488414
 10
244.3350448722524
 20
141.6406491090224
 10
244.3139114494003
 20
141.6313925076884
 10
244.2917170638713
 20
141.6232421685624
 10
244.2684736365953
 20
141.6161909390854
 10
244.2441883201273
 20
141.6102376271654
 10
244.2188754195843
 20
141.6053762723374
 10
244.1925420875234
 20
141.6016032983234
 10
244.1651978606853
 20
141.5989139367504
 10
244.1368546600023
 20
141.5973034192484
 10
244.1075196380293
 20
141.5967669774464
  0
LWPOLYLINE
  5
6FF
330
1F
100
AcDbEntity
  8
Sichtbare_Kanten_TC_020513_DIN_
  6
Continuous
 62
     7
100
AcDbPolyline
 90
       25
 70
     0
 43
0.0
 10
242.9229893798512
 20
141.5967669774464
 10
242.9372563476243
 20
141.5972760011124
 10
242.9510035628953
 20
141.5987971116474
 10
242.9642310256643
 20
141.6013195802134
 10
242.9769387359303
 20
141.6048314858844
 10
242.9891243095083
 20
141.6093244840074
 10
243.0007901305833
 20
141.6147878457474
 10
243.0119361991563
 20
141.6212084580824
 10
243.0225625152273
 20
141.6285791684554
 10
243.0326666946093
 20
141.6368868638444
 10
243.0422392005602
 20
141.6461100865764
 10
243.0512490386643
 20
141.6561940003794
 10
243.0597105140363
 20
141.6671111871174
 10
243.0676355476064
 20
141.6788378049304
 10
243.0750384444872
 20
141.6913535882394
 10
243.0819335097953
 20
141.7046335030964
 10
243.0883016700423
 20
141.7185619164874
 10
243.0939760322253
 20
141.7325988103314
 10
243.0989804382003
 20
141.7465117265154
 10
243.1033578033133
 20
141.7601290036604
 10
243.1071534270923
 20
141.7732789803904
 10
243.1104149932543
 20
141.7857899953294
 10
243.1131901855153
 20
141.7974891950054
 10
243.1155195350333
 20
141.8082037259504
 10
243.1174507255233
 20
141.8177619267864
  0
LWPOLYLINE
  5
700
330
1F
100
AcDbEntity
  8
Sichtbare_Kanten_TC_020513_DIN_
  6
Continuous
 62
     7
100
AcDbPolyline
 90
       25
 70
     0
 43
0.0
 10
235.8229341621073
 20
140.4866280843184
 10
235.7952776069313
 20
140.5534353543684
 10
235.7676770801213
 20
140.6186988641184
 10
235.7401123160993
 20
140.6822982121874
 10
235.7125690097483
 20
140.7441141892834
 10
235.6850257033972
 20
140.8040275861184
 10
235.6574668998393
 20
140.8619191934034
 10
235.6298735255872
 20
140.9176698018474
 10
235.6022276992473
 20
140.9711590100694
 10
235.5745616073284
 20
141.0221770097184
 10
235.5469527358683
 20
141.0704543878004
 10
235.5193832034733
 20
141.1159065057204
 10
235.4918375129373
 20
141.1584546853464
 10
235.4642953986793
 20
141.1980190564554
 10
235.4367401713993
 20
141.2345221330094
 10
235.4091539497053
 20
141.2678828526904
 10
235.3815188522013
 20
141.2980237294604
 10
235.3538467998173
 20
141.3248362828654
 10
235.3262236232433
 20
141.3481703092024
 10
235.2986385936403
 20
141.3679888535904
 10
235.2710750217113
 20
141.3842656899854
 10
235.2435150260594
 20
141.3969734002514
 10
235.2159395332002
 20
141.4060833741594
 10
235.1883318538333
 20
141.4115693856644
 10
235.1606729144723
 20
141.4134040166304
  0
LWPOLYLINE
  5
701
330
1F
100
AcDbEntity
  8
Sichtbare_Kanten_TC_020513_DIN_
  6
Continuous
 62
     7
100
AcDbPolyline
 90
       25
 70
     0
 43
0.0
 10
235.1606729144723
 20
142.8134038735794
 10
235.1883032436044
 20
142.8097417642044
 10
235.2158823127423
 20
142.7987935830524
 10
235.2434268111853
 20
142.7806117822094
 10
235.2709558124213
 20
142.7552535821364
 10
235.2984871978433
 20
142.7227738191054
 10
235.3260376567513
 20
142.6832261372974
 10
235.3536262626323
 20
142.6366689492634
 10
235.3812673206003
 20
142.5831618596484
 10
235.4088845367103
 20
142.5229826260974
 10
235.4364540691053
 20
142.4563660909104
 10
235.4639937991773
 20
142.3834684182574
 10
235.4915216083203
 20
142.3044469643994
 10
235.5190553779273
 20
142.2194567014144
 10
235.5466129893933
 20
142.1286573697494
 10
235.5742135162033
 20
142.0322039414804
 10
235.6018617267283
 20
141.9302966882154
 10
235.6294968242323
 20
141.8234243680404
 10
235.6571188087143
 20
141.7118647386004
 10
235.6847479457533
 20
141.5958383370804
 10
235.7123985404643
 20
141.4755752374094
 10
235.7400384063403
 20
141.3515332032604
 10
235.7676627750073
 20
141.2240627099444
 10
235.7952883357684
 20
141.0934176732464
 10
235.8229341621073
 20
140.9598508168624
  0
LWPOLYLINE
  5
702
330
1F
100
AcDbEntity
  8
Sichtbare_Kanten_TC_020513_DIN_
  6
Continuous
 62
     7
100
AcDbPolyline
 90
       25
 70
     0
 43
0.0
 10
236.2343623752274
 20
140.0134041596814
 10
236.2204554195084
 20
140.0227906991404
 10
236.2046959514293
 20
140.0337269593644
 10
236.1872782821333
 20
140.0462022115154
 10
236.1683967227613
 20
140.0602081109454
 10
236.1482467765483
 20
140.0757339288164
 10
236.1270239467294
 20
140.0927701283854
 10
236.1049213523543
 20
140.1113059808184
 10
236.0821356887493
 20
140.1313307572764
 10
236.0588612670574
 20
140.1528373052044
 10
236.0352935905133
 20
140.1758137036724
 10
236.0116281623513
 20
140.2002504159374
 10
235.9880581016213
 20
140.2261379052564
 10
235.9648432845743
 20
140.2533843804764
 10
235.9432997817663
 20
140.2804270078114
 10
235.9238007182752
 20
140.3065958310534
 10
235.9062423820173
 20
140.3317954827714
 10
235.8905186767253
 20
140.3559246350694
 10
235.8765223140393
 20
140.3788855363294
 10
235.8641495818762
 20
140.4005816270274
 10
235.8532943839703
 20
140.4209127713604
 10
235.8438506240523
 20
140.4397812177104
 10
235.8357133979473
 20
140.4570892144604
 10
235.8287766093883
 20
140.4727366258074
 10
235.8229341621073
 20
140.4866280843184
  0
LWPOLYLINE
  5
703
330
1F
100
AcDbEntity
  8
Sichtbare_Kanten_TC_020513_DIN_
  6
Continuous
 62
     7
100
AcDbPolyline
 90
       25
 70
     0
 43
0.0
 10
235.8229341621073
 20
140.9598508168624
 10
235.8398404235523
 20
140.8831789781024
 10
235.8579435462634
 20
140.8109345723554
 10
235.8769276256243
 20
140.7431378652024
 10
235.8964731807383
 20
140.6798055459424
 10
235.9162666911753
 20
140.6209590722484
 10
235.9359886760394
 20
140.5666187097004
 10
235.9553232307113
 20
140.5168023396894
 10
235.9739699477823
 20
140.4714944650104
 10
235.9924914951003
 20
140.4289140988754
 10
236.0112228507673
 20
140.3880694199964
 10
236.0300555343303
 20
140.3489890386034
 10
236.0488798732433
 20
140.3116979886454
 10
236.0675861949603
 20
140.2762236882614
 10
236.0860648269333
 20
140.2425911714004
 10
236.1042084808033
 20
140.2108266641064
 10
236.1219062919293
 20
140.1809587766094
 10
236.1390509719523
 20
140.1530113507674
 10
236.1555304641403
 20
140.1270129968094
 10
236.1712386722243
 20
140.1029887486864
 10
236.1860635394733
 20
140.0809648324414
 10
236.1998977775253
 20
140.0609674741194
 10
236.2126317138353
 20
140.0430252839494
 10
236.2241556758563
 20
140.0271609116954
 10
236.2343623752274
 20
140.0134041596814
  0
LWPOLYLINE
  5
704
330
1F
100
AcDbEntity
  8
Sichtbare_Kanten_TC_020513_DIN_
  6
Continuous
 62
     7
100
AcDbPolyline
 90
       25
 70
     0
 43
0.0
 10
205.2425577754653
 20
140.0134041596814
 10
205.2527644748363
 20
140.0271609116954
 10
205.2642884368573
 20
140.0430252839494
 10
205.2770223731673
 20
140.0609674741194
 10
205.2908566112193
 20
140.0809648324414
 10
205.3056814784683
 20
140.1029887486864
 10
205.3213896865523
 20
140.1270129968094
 10
205.3378691787403
 20
140.1530113507674
 10
205.3550138587634
 20
140.1809587766094
 10
205.3727116698893
 20
140.2108266641064
 10
205.3908553237592
 20
140.2425911714004
 10
205.4093339557323
 20
140.2762236882614
 10
205.4280402774493
 20
140.3116979886454
 10
205.4468646163622
 20
140.3489890386034
 10
205.4656972999252
 20
140.3880694199964
 10
205.4844286555924
 20
140.4289140988754
 10
205.5029502029093
 20
140.4714944650104
 10
205.5215969199813
 20
140.5168023396894
 10
205.5409314746533
 20
140.5666187097004
 10
205.5606534595162
 20
140.6209590722484
 10
205.5804469699532
 20
140.6798055459424
 10
205.5999925250683
 20
140.7431378652024
 10
205.6189766044293
 20
140.8109357644484
 10
205.6370797271404
 20
140.8831789781024
 10
205.6539859885843
 20
140.9598508168624
  0
LWPOLYLINE
  5
705
330
1F
100
AcDbEntity
  8
Sichtbare_Kanten_TC_020513_DIN_
  6
Continuous
 62
     7
100
AcDbPolyline
 90
       25
 70
     0
 43
0.0
 10
205.6539859885843
 20
140.9598508168624
 10
205.6816163177163
 20
141.0933413793014
 10
205.7091953868543
 20
141.2237658788134
 10
205.7367398852983
 20
141.3508847047254
 10
205.7642688865344
 20
141.4744582463664
 10
205.7918002719553
 20
141.5942457009724
 10
205.8193507308633
 20
141.7100098420544
 10
205.8469393367442
 20
141.8215086747574
 10
205.8745803947123
 20
141.9284894753854
 10
205.9021976108223
 20
142.0303705026074
 10
205.9297659511244
 20
142.1268203545974
 10
205.9573056811963
 20
142.2176733304424
 10
205.9848346824323
 20
142.3027637292314
 10
206.0123684520393
 20
142.3819258500504
 10
206.0399260635053
 20
142.4549963761734
 10
206.0675265903143
 20
142.5218096066874
 10
206.0951748008403
 20
142.5821759988234
 10
206.1228098983433
 20
142.6357891847064
 10
206.1504318828253
 20
142.6825228024884
 10
206.1780610198643
 20
142.7222862531114
 10
206.2057116145763
 20
142.7549889375134
 10
206.2333514804513
 20
142.7804997254774
 10
206.2609746570263
 20
142.7987602044504
 10
206.2886014098793
 20
142.8097381879254
 10
206.3162472362193
 20
142.8134038735794
  0
LWPOLYLINE
  5
706
330
1F
100
AcDbEntity
  8
Sichtbare_Kanten_TC_020513_DIN_
  6
Continuous
 62
     7
100
AcDbPolyline
 90
       25
 70
     0
 43
0.0
 10
205.6539859885843
 20
140.4866280843184
 10
205.6481435413033
 20
140.4727366258074
 10
205.6412067527443
 20
140.4570892144604
 10
205.6330695266393
 20
140.4397812177104
 10
205.6236257667213
 20
140.4209127713604
 10
205.6127705688153
 20
140.4005816270274
 10
205.6003978366522
 20
140.3788855363294
 10
205.5864014739663
 20
140.3559246350694
 10
205.5706777686743
 20
140.3317954827714
 10
205.5531194324163
 20
140.3065958310534
 10
205.5336203689253
 20
140.2804270078114
 10
205.5120768661173
 20
140.2533843804764
 10
205.4888620490703
 20
140.2261379052564
 10
205.4652919883403
 20
140.2002504159374
 10
205.4416265601782
 20
140.1758137036724
 10
205.4180588836343
 20
140.1528373052044
 10
205.3947844619423
 20
140.1313307572764
 10
205.3719987983373
 20
140.1113059808184
 10
205.3498962039623
 20
140.0927701283854
 10
205.3286733741433
 20
140.0757339288164
 10
205.3085234279303
 20
140.0602081109454
 10
205.2896418685584
 20
140.0462022115154
 10
205.2722241992623
 20
140.0337269593644
 10
205.2564647311843
 20
140.0227906991404
 10
205.2425577754653
 20
140.0134041596814
  0
LWPOLYLINE
  5
707
330
1F
100
AcDbEntity
  8
Sichtbare_Kanten_TC_020513_DIN_
  6
Continuous
 62
     7
100
AcDbPolyline
 90
       25
 70
     0
 43
0.0
 10
206.3162472362193
 20
141.4134040166304
 10
206.2885906810433
 20
141.4115693856644
 10
206.2609889621403
 20
141.4060857583454
 10
206.2334253902104
 20
141.3969805528094
 10
206.2058808917673
 20
141.3842847634714
 10
206.1783387775093
 20
141.3680270005624
 10
206.1507799739513
 20
141.3482346822184
 10
206.1231865996983
 20
141.3249388028544
 10
206.0955407733592
 20
141.2981679727004
 10
206.0678746814403
 20
141.2680092145364
 10
206.0402658099803
 20
141.2346306134624
 10
206.0126962775852
 20
141.1981191922594
 10
205.9851505870493
 20
141.1585548211504
 10
205.9576084727913
 20
141.1160209466384
 10
205.9300532455113
 20
141.0705998231334
 10
205.9024670238173
 20
141.0223725129534
 10
205.8748319263133
 20
140.9714224625994
 10
205.8471598739292
 20
140.9178927232194
 10
205.8195366973553
 20
140.8620896626874
 10
205.7919516677533
 20
140.8041503716874
 10
205.7643880958233
 20
140.7441952516004
 10
205.7368281001723
 20
140.6823458959034
 10
205.7092526073133
 20
140.6187203217914
 10
205.6816449279463
 20
140.5534413148334
 10
205.6539859885843
 20
140.4866280843184
  0
LWPOLYLINE
  5
708
330
1F
100
AcDbEntity
  8
Sichtbare_Kanten_TC_020513_DIN_
  6
Continuous
 62
     7
100
AcDbPolyline
 90
       25
 70
     0
 43
0.0
 10
205.0506773109113
 20
128.8532587577264
 10
205.0408496970812
 20
128.8996231247354
 10
205.0310256595294
 20
128.9463442255424
 10
205.0212040061633
 20
128.9934104372424
 10
205.0113859290753
 20
129.0408095408844
 10
205.0015690440814
 20
129.0885299135614
 10
204.9917521590863
 20
129.1365596343444
 10
204.9819364661852
 20
129.1848861862584
 10
204.9721195811903
 20
129.2334982444214
 10
204.9623015041033
 20
129.2823835898804
 10
204.9524798507372
 20
129.3315300036834
 10
204.9426558131854
 20
129.3809255649014
 10
204.9328270072613
 20
129.4305589486524
 10
204.9229993934313
 20
129.4803932000564
 10
204.9131753558793
 20
129.5303901721404
 10
204.9033537025134
 20
129.5805385400224
 10
204.8935356254253
 20
129.6308251906794
 10
204.8837187404313
 20
129.6812370110914
 10
204.8739018554363
 20
129.7317626763744
 10
204.8640861625353
 20
129.7823890735074
 10
204.8542692775404
 20
129.8331030894684
 10
204.8444512004533
 20
129.8838928033274
 10
204.8346295470873
 20
129.9347456981104
 10
204.8248055095353
 20
129.9856486607954
 10
204.8149778957043
 20
130.0365897704524
  0
LWPOLYLINE
  5
709
330
1F
100
AcDbEntity
  8
Sichtbare_Kanten_TC_020513_DIN_
  6
Continuous
 62
     7
100
AcDbPolyline
 90
       25
 70
     0
 43
0.0
 10
204.8149778957043
 20
130.0365897704524
 10
204.8248055095343
 20
130.0111195136474
 10
204.8346295470863
 20
129.9856677342814
 10
204.8444512004523
 20
129.9602415849134
 10
204.8542692775404
 20
129.9348464299604
 10
204.8640861625343
 20
129.9094894219804
 10
204.8739018554363
 20
129.8841765214364
 10
204.8837187404303
 20
129.8589136887954
 10
204.8935356254253
 20
129.8337074805664
 10
204.9033537025123
 20
129.8085644532604
 10
204.9131753558783
 20
129.7834899712964
 10
204.9229993934303
 20
129.7584917832774
 10
204.9328270072613
 20
129.7335746575754
 10
204.9426558131843
 20
129.7087576676774
 10
204.9524798507363
 20
129.6840598870684
 10
204.9623015041023
 20
129.6594866801664
 10
204.9721195811903
 20
129.6350440074374
 10
204.9819364661843
 20
129.6107378293444
 10
204.9917521590863
 20
129.5865747023984
 10
205.0015690440803
 20
129.5625599910184
 10
205.0113859290753
 20
129.5386996556684
 10
205.0212040061624
 20
129.5150002528594
 10
205.0310256595283
 20
129.4914671470094
 10
205.0408496970803
 20
129.4681062985824
 10
205.0506773109113
 20
129.4449242640894
  0
LWPOLYLINE
  5
70A
330
1F
100
AcDbEntity
  8
Sichtbare_Kanten_TC_020513_DIN_
  6
Continuous
 62
     7
100
AcDbPolyline
 90
       25
 70
     0
 43
0.0
 10
196.9804778213183
 20
141.8177619267864
 10
196.9770565147083
 20
141.8266907025744
 10
196.9737782592453
 20
141.8356182862684
 10
196.9706478233013
 20
141.8445458699624
 10
196.9676604385053
 20
141.8534734536574
 10
196.9648184890434
 20
141.8623998452594
 10
196.9621195907272
 20
141.8713274289534
 10
196.9595685119313
 20
141.8802538205554
 10
196.9571604842823
 20
141.8891814042494
 10
196.9548978919663
 20
141.8981077958514
 10
196.9527807349843
 20
141.9070353795454
 10
196.9508090133353
 20
141.9159641553324
 10
196.9489851112043
 20
141.9248929311204
 10
196.9473042602223
 20
141.9338205148144
 10
196.9457688445722
 20
141.9427492906024
 10
196.9443812484423
 20
141.9516768742964
 10
196.9431390876453
 20
141.9606044579914
 10
196.9420423621813
 20
141.9695308495924
 10
196.9410934562363
 20
141.9784584332864
 10
196.9402876014394
 20
141.9873848248884
 10
196.9396295661604
 20
141.9963112164904
 10
196.9391193504013
 20
142.0052388001844
 10
196.9387521857893
 20
142.0141663838794
 10
196.9385328406973
 20
142.0230951596664
 10
196.9384589309373
 20
142.0320227433604
  0
LWPOLYLINE
  5
70B
330
1F
100
AcDbEntity
  8
Sichtbare_Kanten_TC_020513_DIN_
  6
Continuous
 62
     7
100
AcDbPolyline
 90
       25
 70
     0
 43
0.0
 10
198.3384599799793
 20
142.0320227433604
 10
198.3384957427663
 20
142.0230951596664
 10
198.3386054153123
 20
142.0141663838794
 10
198.3387889976183
 20
142.0052388001844
 10
198.3390441054983
 20
141.9963112164904
 10
198.3393731231374
 20
141.9873848248884
 10
198.3397760505354
 20
141.9784584332864
 10
198.3402505035082
 20
141.9695308495924
 10
198.3407988662403
 20
141.9606044579914
 10
198.3414211387313
 20
141.9516768742964
 10
198.3421149367973
 20
141.9427492906024
 10
198.3428826446213
 20
141.9338205148144
 10
198.3437218780203
 20
141.9248929311204
 10
198.3446350211784
 20
141.9159641553324
 10
198.3456196899094
 20
141.9070353795454
 10
198.3466782684013
 20
141.8981077958514
 10
198.3478107566513
 20
141.8891814042494
 10
198.3490147704762
 20
141.8802538205554
 10
198.3502903098743
 20
141.8713274289534
 10
198.3516397590324
 20
141.8623998452594
 10
198.3530607337634
 20
141.8534734536574
 10
198.3545532340683
 20
141.8445458699624
 10
198.3561196441332
 20
141.8356182862684
 10
198.3577575797713
 20
141.8266907025744
 10
198.3594694251693
 20
141.8177619267864
  0
LWPOLYLINE
  5
70C
330
1F
100
AcDbEntity
  8
Sichtbare_Kanten_TC_020513_DIN_
  6
Continuous
 62
     7
100
AcDbPolyline
 90
       25
 70
     0
 43
0.0
 10
199.7384610290202
 20
140.9209766675394
 10
199.7229900474223
 20
140.9342518140244
 10
199.7075190658243
 20
140.9475269605084
 10
199.6920504684123
 20
140.9608009149004
 10
199.6765842551862
 20
140.9740748692914
 10
199.6611204261453
 20
140.9873476315904
 10
199.6456589812903
 20
141.0006215859814
 10
199.6301999206214
 20
141.0138955403734
 10
199.6147432441383
 20
141.0271683026714
 10
199.5992913360273
 20
141.0404422570634
 10
199.5838418121013
 20
141.0537162114544
 10
199.5683970565473
 20
141.0669913579394
 10
199.5529594535503
 20
141.0802653123304
 10
199.5375242347392
 20
141.0935404588154
 10
199.5220961684854
 20
141.1068156052994
 10
199.5066776389753
 20
141.1200895596904
 10
199.4912638778363
 20
141.1333635140824
 10
199.4758596534403
 20
141.1466362763804
 10
199.4604625816023
 20
141.1599102307724
 10
199.4450750465064
 20
141.1731841851634
 10
199.4296946639693
 20
141.1864569474624
 10
199.4143238181743
 20
141.1997309018534
 10
199.3989625091223
 20
141.2130048562454
 10
199.3836131210003
 20
141.2262800027294
 10
199.3682708854353
 20
141.2395551492144
  0
LWPOLYLINE
  5
70D
330
1F
100
AcDbEntity
  8
Sichtbare_Kanten_TC_020513_DIN_
  6
Continuous
 62
     7
100
AcDbPolyline
 90
       25
 70
     0
 43
0.0
 10
199.5533647651353
 20
141.2395551492144
 10
199.5610370750102
 20
141.2262800027294
 10
199.5687117690723
 20
141.2130048562454
 10
199.5763912315043
 20
141.1997309018534
 10
199.5840778464953
 20
141.1864569474624
 10
199.5917668456713
 20
141.1731841851634
 10
199.5994606132182
 20
141.1599102307724
 10
199.6071591491373
 20
141.1466362763804
 10
199.6148624534283
 20
141.1333635140824
 10
199.6225681419053
 20
141.1200895596904
 10
199.6302785987534
 20
141.1068156052994
 10
199.6379914397873
 20
141.0935404588154
 10
199.6457090491924
 20
141.0802653123304
 10
199.6534290427844
 20
141.0669913579394
 10
199.6611514205613
 20
141.0537162114544
 10
199.6688761825243
 20
141.0404422570634
 10
199.6766009444872
 20
141.0271683026714
 10
199.6843304748213
 20
141.0138955403734
 10
199.6920600051563
 20
141.0006215859814
 10
199.6997895354903
 20
140.9873476315904
 10
199.7075214500102
 20
140.9740748692914
 10
199.7152557487163
 20
140.9608009149004
 10
199.7229900474223
 20
140.9475269605084
 10
199.7307243461283
 20
140.9342518140244
 10
199.7384610290202
 20
140.9209766675394
  0
LWPOLYLINE
  5
70E
330
1F
100
AcDbEntity
  8
Sichtbare_Kanten_TC_020513_DIN_
  6
Continuous
 62
     7
100
AcDbPolyline
 90
       25
 70
     0
 43
0.0
 10
199.3682708854353
 20
141.2395551492144
 10
199.3548574561743
 20
141.2509169866014
 10
199.3382229919113
 20
141.2645294953754
 10
199.3183984870584
 20
141.2801184941694
 10
199.2954125518473
 20
141.2974157620834
 10
199.2692985648783
 20
141.3161495019364
 10
199.2400827521953
 20
141.3360491086404
 10
199.2077961082134
 20
141.3568451692034
 10
199.1724696273483
 20
141.3782646943494
 10
199.1341319198284
 20
141.4000382710864
 10
199.0928139800703
 20
141.4218952943254
 10
199.0485444183022
 20
141.4435651589794
 10
199.0013542289414
 20
141.4647772599624
 10
198.9512744064003
 20
141.4852598000924
 10
198.8984789962444
 20
141.5047016431254
 10
198.8448681945474
 20
141.5223887254164
 10
198.7910881156593
 20
141.5381529618664
 10
198.7372269744544
 20
141.5520074654984
 10
198.6833729858074
 20
141.5639689256114
 10
198.6296119804053
 20
141.5740516473224
 10
198.5760321731243
 20
141.5822675515574
 10
198.5227193946514
 20
141.5886333276194
 10
198.4697618598613
 20
141.5931620885294
 10
198.4172477836283
 20
141.5958681394024
 10
198.3652629966413
 20
141.5967669774464
  0
LWPOLYLINE
  5
70F
330
1F
100
AcDbEntity
  8
Sichtbare_Kanten_TC_020513_DIN_
  6
Continuous
 62
     7
100
AcDbPolyline
 90
       25
 70
     0
 43
0.0
 10
199.0518608207383
 20
141.5967669774464
 10
199.0793314094223
 20
141.5957513142994
 10
199.1068949813522
 20
141.5927281667164
 10
199.1344943160693
 20
141.5877368737624
 10
199.1620721931133
 20
141.5808155824114
 10
199.1895713920273
 20
141.5720036317274
 10
199.2169275397933
 20
141.5613439370554
 10
199.2438736076032
 20
141.5489795495434
 10
199.2702808494243
 20
141.5350284863874
 10
199.2961135024703
 20
141.5195730019974
 10
199.3213334197673
 20
141.5026953507824
 10
199.3459024543443
 20
141.4844801713394
 10
199.3697872275984
 20
141.4650097180774
 10
199.3928589934982
 20
141.4444484998154
 10
199.4145717734972
 20
141.4233949471874
 10
199.4348492736493
 20
141.4021435071394
 10
199.4536938781413
 20
141.3809206773204
 10
199.4711127395313
 20
141.3599553395674
 10
199.4871034736313
 20
141.3394763757154
 10
199.5016756171863
 20
141.3197102834154
 10
199.5148315543804
 20
141.3008847524094
 10
199.5265760535874
 20
141.2832286645344
 10
199.5369091148053
 20
141.2669697095324
 10
199.5458378905923
 20
141.2523355771464
 10
199.5533647651353
 20
141.2395551492144
  0
LWPOLYLINE
  5
710
330
1F
100
AcDbEntity
  8
Sichtbare_Kanten_TC_020513_DIN_
  6
Continuous
 62
     7
100
AcDbPolyline
 90
       25
 70
     0
 43
0.0
 10
197.3694005126633
 20
141.5967669774464
 10
197.3399820441873
 20
141.5973058034344
 10
197.3115601653732
 20
141.5989258576794
 10
197.2841444129624
 20
141.6016319085524
 10
197.2577443236983
 20
141.6054287244244
 10
197.2323694343243
 20
141.6103186894824
 10
197.2080316657703
 20
141.6163077641894
 10
197.1847381705913
 20
141.6233995248244
 10
197.1625008697193
 20
141.6315987397594
 10
197.1413316840803
 20
141.6409089852734
 10
197.1212473029773
 20
141.6513302613664
 10
197.1026601905502
 20
141.6626122285294
 10
197.0857110137624
 20
141.6745260049274
 10
197.0703139419233
 20
141.6869356919694
 10
197.0563926810893
 20
141.6997077752514
 10
197.0438661689433
 20
141.7127075482774
 10
197.0326509589833
 20
141.7258003045484
 10
197.0226683730763
 20
141.7388525296614
 10
197.0138349647203
 20
141.7517283250254
 10
197.0060720557843
 20
141.7642941762374
 10
196.9992985839523
 20
141.7764141847064
 10
196.9934334869063
 20
141.7879560281204
 10
196.9883957023303
 20
141.7987838078904
 10
196.9841041679063
 20
141.8087640096114
 10
196.9804778213183
 20
141.8177619267864
  0
LWPOLYLINE
  5
711
330
1F
100
AcDbEntity
  8
Sichtbare_Kanten_TC_020513_DIN_
  6
Continuous
 62
     7
100
AcDbPolyline
 90
       25
 70
     0
 43
0.0
 10
198.3594694251693
 20
141.8177619267864
 10
198.3612957114853
 20
141.8086781789234
 10
198.3634319419543
 20
141.7986991692944
 10
198.3659210319203
 20
141.7879441071914
 10
198.3687987441703
 20
141.7765369702744
 10
198.3721127624194
 20
141.7645981599254
 10
198.3758988494553
 20
141.7522492696214
 10
198.3801975364362
 20
141.7396130849284
 10
198.3850517387073
 20
141.7268100072314
 10
198.3905019874252
 20
141.7139628220964
 10
198.3965888137493
 20
141.7011931229994
 10
198.4033503646533
 20
141.6886225034164
 10
198.4108319396652
 20
141.6763725568224
 10
198.4190693015733
 20
141.6645648766924
 10
198.4281053657214
 20
141.6533222485944
 10
198.4379115218794
 20
141.6428377915784
 10
198.4483423347153
 20
141.6333606530594
 10
198.4593954200423
 20
141.6249218274524
 10
198.4710803146043
 20
141.6175415803364
 10
198.4834089393293
 20
141.6112413693834
 10
198.4963622207324
 20
141.6060509969164
 10
198.5098996276533
 20
141.6020002652574
 10
198.5240116233503
 20
141.5990975190564
 10
198.5386886710803
 20
141.5973511029644
 10
198.5539307708423
 20
141.5967669774464
  0
SOLID
  5
712
330
1F
100
AcDbEntity
  8
1
 62
     2
100
AcDbTrace
 10
242.8749119251012
 20
72.37544866637616
 30
0.0
 11
242.3121059313086
 21
71.82117878833205
 31
0.0
 12
240.4884600753483
 22
74.23578169836259
 32
0.0
 13
240.4884600753483
 23
74.23578169836259
 33
0.0
  0
LEADER
  5
713
330
1F
100
AcDbEntity
  8
1
  6
Continuous
 62
     2
100
AcDbLeader
  3
Standard
 71
     0
 76
     3
 10
240.4884600753483
 20
74.23578169836259
 30
0.0
 10
261.479354934353
 20
52.9216134390161
 30
0.0
 10
272.343974149158
 20
52.9216134390161
 30
0.0
  0
MTEXT
  5
714
330
1F
100
AcDbEntity
  8
1
 62
     7
100
AcDbMText
 10
256.6763006887431
 20
10.0606394207561
 30
0.0
 40
4.5
 41
0.0
 71
     5
 72
     1
  1
1:1
  7
CONVERTER_11
 73
     1
 44
0.75727272727273
  0
MTEXT
  5
715
330
1F
100
AcDbEntity
  8
1
 62
     7
100
AcDbMText
 10
119.6
 20
7.49999999999987
 30
0.0
 40
3.0
 41
0.0
 71
     4
 72
     1
  1
Pezzimenti
  7
CONVERTER_11
 73
     1
 44
0.75727272727273
  0
MTEXT
  5
716
330
1F
100
AcDbEntity
  8
1
 62
     7
100
AcDbMText
 10
119.6
 20
12.4999999999999
 30
0.0
 40
3.0
 41
0.0
 71
     4
 72
     1
  1
08/08/14
  7
CONVERTER_11
 73
     1
 44
0.75727272727273
  0
MTEXT
  5
717
330
1F
100
AcDbEntity
  8
1
 62
     7
100
AcDbMText
 10
144.276300688743
 20
12.5
 30
0.0
 40
4.5
 41
0.0
 71
     4
 72
     1
  1
C7P 10 \Psurface mounting housing, 2 levers. PG16.
  7
CONVERTER_11
 73
     1
 44
0.75727272727273
  0
MTEXT
  5
719
330
1F
100
AcDbEntity
  8
1
 62
     4
100
AcDbMText
 10
262.091446157722
 20
54.6048643032816
 30
0.0
 40
3.5
 41
0.0
 71
     7
 72
     1
  1
\U+00f85,5
  7
CONVERTER_13
 73
     1
 44
1.32052821128451
  0
DIMENSION
  5
724
330
1F
100
AcDbEntity
  8
1
100
AcDbDimension
  2
*D2
 10
169.037891753402
 20
131.2357816983624
 30
0.0
 11
165.537891753402
 21
102.7357816983625
 31
0.0
 70
    32
  1
<>
 71
     5
 42
-1.0
 53
90.0
  3
ME10_DIM_10
100
AcDbAlignedDimension
 13
135.6510086225313
 23
74.23578169836259
 33
0.0
 14
123.7010086225313
 24
131.2357816983624
 34
0.0
 50
90.0
100
AcDbRotatedDimension
  0
DIMENSION
  5
72F
330
1F
100
AcDbEntity
  8
1
100
AcDbDimension
  2
*D3
 10
275.771763396502
 20
131.2357816983624
 30
0.0
 11
272.271763396502
 21
102.7357816983625
 31
0.0
 70
    32
  1
<>
 71
     5
 42
-1.0
 53
90.0
  3
ME10_DIM_11
100
AcDbAlignedDimension
 13
246.7384600753443
 23
74.23578169836259
 33
0.0
 14
242.7884600753493
 24
131.2357816983624
 34
0.0
 50
90.0
100
AcDbRotatedDimension
  0
DIMENSION
  5
73C
330
1F
100
AcDbEntity
  8
1
100
AcDbDimension
  2
*D4
 10
264.290795273516
 20
74.23578169836259
 30
0.0
 11
260.790795273516
 21
76.23578169836259
 31
0.0
 70
    32
  1
<>
 71
     5
 42
-1.0
 53
90.0
  3
ME10_DIM_12
100
AcDbAlignedDimension
 13
246.7384600753443
 23
78.23578169836259
 33
0.0
 14
246.7384600753443
 24
74.23578169836259
 34
0.0
 50
90.0
100
AcDbRotatedDimension
  0
DIMENSION
  5
747
330
1F
100
AcDbEntity
  8
1
100
AcDbDimension
  2
*D5
 10
148.3349585942473
 20
167.861957437299
 30
0.0
 11
88.90100862253107
 21
171.361957437299
 31
0.0
 70
    32
  1
119
 71
     5
 42
-1.0
 53
0.00013888888889
  3
ME10_DIM_13
100
AcDbAlignedDimension
 13
29.46705865081481
 23
113.2357816983624
 33
0.0
 14
148.3349585942473
 24
113.2357816983624
 34
0.0
100
AcDbRotatedDimension
  0
DIMENSION
  5
752
330
1F
100
AcDbEntity
  8
1
100
AcDbDimension
  2
*D6
 10
47.90100862253092
 20
56.7160461065415
 30
0.0
 11
88.90100862253112
 21
60.2160461065415
 31
0.0
 70
    32
  1
<>
 71
     5
 42
-1.0
 53
0.00013888888889
  3
ME10_DIM_14
100
AcDbAlignedDimension
 13
129.9010086225313
 23
71.73578169836259
 33
0.0
 14
47.90100862253092
 24
71.73578169836259
 34
0.0
100
AcDbRotatedDimension
  0
DIMENSION
  5
75D
330
1F
100
AcDbEntity
  8
1
100
AcDbDimension
  2
*D7
 10
42.15100862253092
 20
40.7
 30
0.0
 11
88.90100862253112
 21
44.35
 31
0.0
 70
    32
  1
<>
 71
     5
 42
-1.0
 53
0.00013888888889
  3
ME10_DIM_15
100
AcDbAlignedDimension
 13
135.6510086225313
 23
74.23578169836259
 33
0.0
 14
42.15100862253092
 24
74.23578169836259
 34
0.0
100
AcDbRotatedDimension
  0
DIMENSION
  5
768
330
1F
100
AcDbEntity
  8
1
100
AcDbDimension
  2
*D8
 10
200.7384600753463
 20
56.7160461065415
 30
0.0
 11
220.6134600753473
 21
60.3660461065415
 31
0.0
 70
    32
  1
<>
 71
     5
 42
-1.0
 53
0.00013888888889
  3
ME10_DIM_16
100
AcDbAlignedDimension
 13
240.4884600753483
 23
71.73578169836259
 33
0.0
 14
200.7384600753463
 24
71.73578169836259
 34
0.0
100
AcDbRotatedDimension
  0
DIMENSION
  5
773
330
1F
100
AcDbEntity
  8
1
100
AcDbDimension
  2
*D9
 10
194.7384600753443
 20
40.7
 30
0.0
 11
220.7384600753443
 21
44.2
 31
0.0
 70
    32
  1
<>
 71
     5
 42
-1.0
 53
0.00013888888889
  3
ME10_DIM_17
100
AcDbAlignedDimension
 13
246.7384600753443
 23
74.23578169836259
 33
0.0
 14
194.7384600753443
 24
74.23578169836259
 34
0.0
100
AcDbRotatedDimension
  0
DIMENSION
  5
77E
330
1F
100
AcDbEntity
  8
1
100
AcDbDimension
  2
*D10
 10
155.423552430761
 20
79.07378169836258
 30
0.0
 11
151.923552430761
 21
90.81578169836249
 31
0.0
 70
    32
  1
PG16
 71
     5
 42
-1.0
 53
90.0
  3
ME10_DIM_18
100
AcDbAlignedDimension
 13
135.6510086225313
 23
102.5577816983624
 33
0.0
 14
135.7510086225313
 24
79.07378169836258
 34
0.0
 50
90.0
100
AcDbRotatedDimension
  0
ENDSEC
  0
SECTION
  2
OBJECTS
  0
DICTIONARY
  5
C
330
0
100
AcDbDictionary
281
     1
  3
ACAD_GROUP
350
D
  3
ACAD_LAYOUT
350
1A
  3
ACAD_MATERIAL
350
3B
  3
ACAD_MLEADERSTYLE
350
781
  3
ACAD_MLINESTYLE
350
17
  3
ACAD_PLOTSETTINGS
350
19
  3
ACAD_PLOTSTYLENAME
350
E
  3
ACAD_VISUALSTYLE
350
2A
  3
AcDbVariableDictionary
350
77F
  0
DICTIONARY
  5
D
102
{ACAD_REACTORS
330
C
102
}
330
C
100
AcDbDictionary
281
     1
  0
DICTIONARY
  5
1A
102
{ACAD_REACTORS
330
C
102
}
330
C
100
AcDbDictionary
281
     1
  3
Layout1
350
1E
  3
Layout2
350
26
  3
Model
350
22
  0
DICTIONARY
  5
3B
102
{ACAD_REACTORS
330
C
102
}
330
C
100
AcDbDictionary
281
     1
  3
ByBlock
350
3D
  3
ByLayer
350
3C
  3
Global
350
3E
  0
DICTIONARY
  5
781
102
{ACAD_REACTORS
330
C
102
}
330
C
100
AcDbDictionary
281
     1
  0
DICTIONARY
  5
17
102
{ACAD_REACTORS
330
C
102
}
330
C
100
AcDbDictionary
281
     1
  3
Standard
350
18
  0
DICTIONARY
  5
19
102
{ACAD_REACTORS
330
C
102
}
330
C
100
AcDbDictionary
281
     1
  0
ACDBDICTIONARYWDFLT
  5
E
102
{ACAD_REACTORS
330
C
102
}
330
C
100
AcDbDictionary
281
     1
  3
Normal
350
F
100
AcDbDictionaryWithDefault
340
F
  0
DICTIONARY
  5
2A
102
{ACAD_REACTORS
330
C
102
}
330
C
100
AcDbDictionary
281
     1
  3
2dWireframe
350
2F
  3
3D Hidden
350
31
  3
3dWireframe
350
30
  3
Basic
350
32
  3
Brighten
350
36
  3
ColorChange
350
3A
  3
Conceptual
350
34
  3
Dim
350
35
  3
Facepattern
350
39
  3
Flat
350
2B
  3
FlatWithEdges
350
2C
  3
Gouraud
350
2D
  3
GouraudWithEdges
350
2E
  3
Linepattern
350
38
  3
Realistic
350
33
  3
Thicken
350
37
  0
DICTIONARY
  5
77F
102
{ACAD_REACTORS
330
C
102
}
330
C
100
AcDbDictionary
281
     1
  3
DIMASSOC
350
782
  3
HIDETEXT
350
783
  0
LAYOUT
  5
1E
102
{ACAD_REACTORS
330
1A
102
}
330
1A
100
AcDbPlotSettings
  1

  2
none_device
  4

  6

 40
0.0
 41
0.0
 42
0.0
 43
0.0
 44
0.0
 45
0.0
 46
0.0
 47
0.0
 48
0.0
 49
0.0
140
0.0
141
0.0
142
1.0
143
1.0
 70
   688
 72
     0
 73
     0
 74
     5
  7

 75
    16
147
1.0
148
0.0
149
0.0
100
AcDbLayout
  1
Layout1
 70
     1
 71
     1
 10
0.0
 20
0.0
 11
12.0
 21
9.0
 12
0.0
 22
0.0
 32
0.0
 14
1.00000000000000E+20
 24
1.00000000000000E+20
 34
1.00000000000000E+20
 15
-1.00000000000000E+20
 25
-1.00000000000000E+20
 35
-1.00000000000000E+20
146
0.0
 13
0.0
 23
0.0
 33
0.0
 16
1.0
 26
0.0
 36
0.0
 17
0.0
 27
1.0
 37
0.0
 76
     0
330
1B
  0
LAYOUT
  5
26
102
{ACAD_REACTORS
330
1A
102
}
330
1A
100
AcDbPlotSettings
  1

  2
none_device
  4

  6

 40
0.0
 41
0.0
 42
0.0
 43
0.0
 44
0.0
 45
0.0
 46
0.0
 47
0.0
 48
0.0
 49
0.0
140
0.0
141
0.0
142
1.0
143
1.0
 70
   688
 72
     0
 73
     0
 74
     5
  7

 75
    16
147
1.0
148
0.0
149
0.0
100
AcDbLayout
  1
Layout2
 70
     1
 71
     2
 10
0.0
 20
0.0
 11
0.0
 21
0.0
 12
0.0
 22
0.0
 32
0.0
 14
0.0
 24
0.0
 34
0.0
 15
0.0
 25
0.0
 35
0.0
146
0.0
 13
0.0
 23
0.0
 33
0.0
 16
1.0
 26
0.0
 36
0.0
 17
0.0
 27
1.0
 37
0.0
 76
     0
330
23
  0
LAYOUT
  5
22
102
{ACAD_REACTORS
330
1A
102
}
330
1A
100
AcDbPlotSettings
  1

  2
none_device
  4

  6

 40
0.0
 41
0.0
 42
0.0
 43
0.0
 44
0.0
 45
0.0
 46
0.0
 47
0.0
 48
0.0
 49
0.0
140
0.0
141
0.0
142
1.0
143
1.0
 70
  1712
 72
     0
 73
     0
 74
     0
  7

 75
     0
147
1.0
148
0.0
149
0.0
100
AcDbLayout
  1
Model
 70
     1
 71
     0
 10
0.0
 20
0.0
 11
12.0
 21
9.0
 12
0.0
 22
0.0
 32
0.0
 14
0.0
 24
0.0
 34
0.0
 15
296.9999999999999
 25
210.0
 35
0.0
146
0.0
 13
0.0
 23
0.0
 33
0.0
 16
1.0
 26
0.0
 36
0.0
 17
0.0
 27
1.0
 37
0.0
 76
     0
330
1F
331
29
  0
MATERIAL
  5
3D
102
{ACAD_REACTORS
330
3B
102
}
102
{ACAD_XDICTIONARY
360
7A6
102
}
330
3B
100
AcDbMaterial
  1
ByBlock
  0
MATERIAL
  5
3C
102
{ACAD_REACTORS
330
3B
102
}
102
{ACAD_XDICTIONARY
360
7A4
102
}
330
3B
100
AcDbMaterial
  1
ByLayer
  0
MATERIAL
  5
3E
102
{ACAD_REACTORS
330
3B
102
}
102
{ACAD_XDICTIONARY
360
7A8
102
}
330
3B
100
AcDbMaterial
  1
Global
  0
MLINESTYLE
  5
18
102
{ACAD_REACTORS
330
17
102
}
330
17
100
AcDbMlineStyle
  2
Standard
 70
     0
  3

 62
   256
 51
90.0
 52
90.0
 71
     2
 49
0.5
 62
   256
  6
BYLAYER
 49
-0.5
 62
   256
  6
BYLAYER
  0
ACDBPLACEHOLDER
  5
F
102
{ACAD_REACTORS
330
E
102
}
330
E
  0
VISUALSTYLE
  5
2F
102
{ACAD_REACTORS
330
2A
102
}
102
{ACAD_XDICTIONARY
360
78C
102
}
330
2A
100
AcDbVisualStyle
  2
2dWireframe
 70
     4
 71
     0
 72
     2
 73
     0
 90
        0
 40
-0.6
 41
-30.0
 62
     5
 63
     7
 74
     1
 91
        4
 64
     7
 65
   257
 75
     1
175
     1
 42
1.0
 92
        0
 66
   257
 43
1.0
 76
     1
 77
     6
 78
     2
 67
     7
 79
     5
170
     0
171
     0
290
     0
174
     0
 93
        1
 44
0.0
173
     0
291
     0
 45
0.0
1001
ACAD
1000
AcDbSavedByObjectVersion
1070
     0
  0
VISUALSTYLE
  5
31
102
{ACAD_REACTORS
330
2A
102
}
102
{ACAD_XDICTIONARY
360
790
102
}
330
2A
100
AcDbVisualStyle
  2
3D Hidden
 70
     6
 71
     1
 72
     2
 73
     2
 90
        0
 40
-0.6
 41
-30.0
 62
     5
 63
     7
 74
     2
 91
        2
 64
     7
 65
   257
 75
     2
175
     1
 42
40.0
 92
        0
 66
   257
 43
1.0
 76
     1
 77
     6
 78
     2
 67
     7
 79
     3
170
     0
171
     0
290
     0
174
     0
 93
        1
 44
0.0
173
     0
291
     0
 45
0.0
1001
ACAD
1000
AcDbSavedByObjectVersion
1070
     0
  0
VISUALSTYLE
  5
30
102
{ACAD_REACTORS
330
2A
102
}
102
{ACAD_XDICTIONARY
360
78E
102
}
330
2A
100
AcDbVisualStyle
  2
3dWireframe
 70
     5
 71
     0
 72
     2
 73
     0
 90
        0
 40
-0.6
 41
-30.0
 62
     5
 63
     7
 74
     1
 91
        4
 64
     7
 65
   257
 75
     1
175
     1
 42
1.0
 92
        0
 66
   257
 43
1.0
 76
     1
 77
     6
 78
     2
 67
     7
 79
     5
170
     0
171
     0
290
     0
174
     0
 93
        1
 44
0.0
173
     0
291
     0
 45
0.0
1001
ACAD
1000
AcDbSavedByObjectVersion
1070
     0
  0
VISUALSTYLE
  5
32
102
{ACAD_REACTORS
330
2A
102
}
102
{ACAD_XDICTIONARY
360
792
102
}
330
2A
100
AcDbVisualStyle
  2
Basic
 70
     7
 71
     1
 72
     0
 73
     1
 90
        0
 40
-0.6
 41
-30.0
 62
     5
 63
     7
 74
     0
 91
        4
 64
     7
 65
   257
 75
     1
175
     1
 42
1.0
 92
        8
 66
     7
 43
1.0
 76
     1
 77
     6
 78
     2
 67
     7
 79
     5
170
     0
171
     0
290
     0
174
     0
 93
        1
 44
0.0
173
     0
291
     1
 45
0.0
1001
ACAD
1000
AcDbSavedByObjectVersion
1070
     0
  0
VISUALSTYLE
  5
36
102
{ACAD_REACTORS
330
2A
102
}
102
{ACAD_XDICTIONARY
360
79A
102
}
330
2A
100
AcDbVisualStyle
  2
Brighten
 70
    12
 71
     2
 72
     2
 73
     0
 90
        0
 40
-0.6
 41
-30.0
 62
     5
 63
     7
 74
     1
 91
        4
 64
     7
 65
   257
 75
     1
175
     1
 42
1.0
 92
        8
 66
     7
 43
1.0
 76
     1
 77
     6
 78
     2
 67
     7
 79
     5
170
     0
171
     0
290
     0
174
     0
 93
        1
 44
50.0
173
     0
291
     1
 45
0.0
1001
ACAD
1000
AcDbSavedByObjectVersion
1070
     0
  0
VISUALSTYLE
  5
3A
102
{ACAD_REACTORS
330
2A
102
}
102
{ACAD_XDICTIONARY
360
7A2
102
}
330
2A
100
AcDbVisualStyle
  2
ColorChange
 70
    16
 71
     2
 72
     2
 73
     3
 90
        0
 40
-0.6
 41
-30.0
 62
     5
 63
     8
 74
     1
 91
        4
 64
     7
 65
   257
 75
     1
175
     1
 42
1.0
 92
        8
 66
     8
 43
1.0
 76
     1
 77
     6
 78
     2
 67
     7
 79
     5
170
     0
171
     0
290
     0
174
     0
 93
        1
 44
0.0
173
     0
291
     1
 45
0.0
1001
ACAD
1000
AcDbSavedByObjectVersion
1070
     0
  0
VISUALSTYLE
  5
34
102
{ACAD_REACTORS
330
2A
102
}
102
{ACAD_XDICTIONARY
360
796
102
}
330
2A
100
AcDbVisualStyle
  2
Conceptual
 70
     9
 71
     3
 72
     2
 73
     0
 90
        0
 40
-0.6
 41
-30.0
 62
     5
 63
     7
 74
     2
 91
        2
 64
     7
 65
   257
 75
     1
175
     1
 42
40.0
 92
        8
 66
     7
 43
1.0
 76
     1
 77
     6
 78
     2
 67
     7
 79
     3
170
     0
171
     0
290
     0
174
     0
 93
        1
 44
0.0
173
     0
291
     0
 45
0.0
1001
ACAD
1000
AcDbSavedByObjectVersion
1070
     0
  0
VISUALSTYLE
  5
35
102
{ACAD_REACTORS
330
2A
102
}
102
{ACAD_XDICTIONARY
360
798
102
}
330
2A
100
AcDbVisualStyle
  2
Dim
 70
    11
 71
     2
 72
     2
 73
     0
 90
        0
 40
-0.6
 41
-30.0
 62
     5
 63
     7
 74
     1
 91
        4
 64
     7
 65
   257
 75
     1
175
     1
 42
1.0
 92
        8
 66
     7
 43
1.0
 76
     1
 77
     6
 78
     2
 67
     7
 79
     5
170
     0
171
     0
290
     0
174
     0
 93
        1
 44
-50.0
173
     0
291
     1
 45
0.0
1001
ACAD
1000
AcDbSavedByObjectVersion
1070
     0
  0
VISUALSTYLE
  5
39
102
{ACAD_REACTORS
330
2A
102
}
102
{ACAD_XDICTIONARY
360
7A0
102
}
330
2A
100
AcDbVisualStyle
  2
Facepattern
 70
    15
 71
     2
 72
     2
 73
     0
 90
        0
 40
-0.6
 41
-30.0
 62
     5
 63
     7
 74
     1
 91
        4
 64
     7
 65
   257
 75
     1
175
     1
 42
1.0
 92
        8
 66
     7
 43
1.0
 76
     1
 77
     6
 78
     2
 67
     7
 79
     5
170
     0
171
     0
290
     0
174
     0
 93
        1
 44
0.0
173
     0
291
     1
 45
0.0
1001
ACAD
1000
AcDbSavedByObjectVersion
1070
     0
  0
VISUALSTYLE
  5
2B
102
{ACAD_REACTORS
330
2A
102
}
102
{ACAD_XDICTIONARY
360
784
102
}
330
2A
100
AcDbVisualStyle
  2
Flat
 70
     0
 71
     2
 72
     1
 73
     1
 90
        2
 40
-0.6
 41
30.0
 62
     5
 63
     7
 74
     0
 91
        4
 64
     7
 65
   257
 75
     1
175
     1
 42
1.0
 92
        8
 66
     7
 43
1.0
 76
     1
 77
     6
 78
     2
 67
     7
 79
     5
170
     0
171
     0
290
     0
174
     0
 93
       13
 44
0.0
173
     0
291
     1
 45
0.0
1001
ACAD
1000
AcDbSavedByObjectVersion
1070
     0
  0
VISUALSTYLE
  5
2C
102
{ACAD_REACTORS
330
2A
102
}
102
{ACAD_XDICTIONARY
360
786
102
}
330
2A
100
AcDbVisualStyle
  2
FlatWithEdges
 70
     1
 71
     2
 72
     1
 73
     1
 90
        2
 40
-0.6
 41
30.0
 62
     5
 63
     7
 74
     1
 91
        4
 64
     7
 65
   257
 75
     1
175
     1
 42
1.0
 92
        0
 66
   257
 43
1.0
 76
     1
 77
     6
 78
     2
 67
     7
 79
     5
170
     0
171
     0
290
     0
174
     0
 93
       13
 44
0.0
173
     0
291
     1
 45
0.0
1001
ACAD
1000
AcDbSavedByObjectVersion
1070
     0
  0
VISUALSTYLE
  5
2D
102
{ACAD_REACTORS
330
2A
102
}
102
{ACAD_XDICTIONARY
360
788
102
}
330
2A
100
AcDbVisualStyle
  2
Gouraud
 70
     2
 71
     2
 72
     2
 73
     1
 90
        2
 40
-0.6
 41
30.0
 62
     5
 63
     7
 74
     0
 91
        4
 64
     7
 65
   257
 75
     1
175
     1
 42
1.0
 92
        0
 66
     7
 43
1.0
 76
     1
 77
     6
 78
     2
 67
     7
 79
     5
170
     0
171
     0
290
     0
174
     0
 93
       13
 44
0.0
173
     0
291
     1
 45
0.0
1001
ACAD
1000
AcDbSavedByObjectVersion
1070
     0
  0
VISUALSTYLE
  5
2E
102
{ACAD_REACTORS
330
2A
102
}
102
{ACAD_XDICTIONARY
360
78A
102
}
330
2A
100
AcDbVisualStyle
  2
GouraudWithEdges
 70
     3
 71
     2
 72
     2
 73
     1
 90
        2
 40
-0.6
 41
30.0
 62
     5
 63
     7
 74
     1
 91
        4
 64
     7
 65
   257
 75
     1
175
     1
 42
1.0
 92
        0
 66
   257
 43
1.0
 76
     1
 77
     6
 78
     2
 67
     7
 79
     5
170
     0
171
     0
290
     0
174
     0
 93
       13
 44
0.0
173
     0
291
     1
 45
0.0
1001
ACAD
1000
AcDbSavedByObjectVersion
1070
     0
  0
VISUALSTYLE
  5
38
102
{ACAD_REACTORS
330
2A
102
}
102
{ACAD_XDICTIONARY
360
79E
102
}
330
2A
100
AcDbVisualStyle
  2
Linepattern
 70
    14
 71
     2
 72
     2
 73
     0
 90
        0
 40
-0.6
 41
-30.0
 62
     5
 63
     7
 74
     1
 91
        4
 64
     7
 65
   257
 75
     7
175
     7
 42
1.0
 92
        8
 66
     7
 43
1.0
 76
     1
 77
     6
 78
     2
 67
     7
 79
     5
170
     0
171
     0
290
     0
174
     0
 93
        1
 44
0.0
173
     0
291
     1
 45
0.0
1001
ACAD
1000
AcDbSavedByObjectVersion
1070
     0
  0
VISUALSTYLE
  5
33
102
{ACAD_REACTORS
330
2A
102
}
102
{ACAD_XDICTIONARY
360
794
102
}
330
2A
100
AcDbVisualStyle
  2
Realistic
 70
     8
 71
     2
 72
     2
 73
     0
 90
        0
 40
-0.6
 41
-30.0
 62
     5
 63
     7
 74
     1
 91
        0
 64
     7
 65
   257
 75
     1
175
     1
 42
1.0
 92
        8
 66
     8
 43
1.0
 76
     1
 77
     6
 78
     2
 67
     7
 79
     5
170
     0
171
     0
290
     0
174
     0
 93
       13
 44
0.0
173
     0
291
     0
 45
0.0
1001
ACAD
1000
AcDbSavedByObjectVersion
1070
     0
  0
VISUALSTYLE
  5
37
102
{ACAD_REACTORS
330
2A
102
}
102
{ACAD_XDICTIONARY
360
79C
102
}
330
2A
100
AcDbVisualStyle
  2
Thicken
 70
    13
 71
     2
 72
     2
 73
     0
 90
        0
 40
-0.6
 41
-30.0
 62
     5
 63
     7
 74
     1
 91
        4
 64
     7
 65
   257
 75
     1
175
     1
 42
1.0
 92
       12
 66
     7
 43
1.0
 76
     1
 77
     6
 78
     2
 67
     7
 79
     5
170
     0
171
     0
290
     0
174
     0
 93
        1
 44
0.0
173
     0
291
     1
 45
0.0
1001
ACAD
1000
AcDbSavedByObjectVersion
1070
     0
  0
DICTIONARYVAR
  5
782
102
{ACAD_REACTORS
330
77F
102
}
330
77F
100
DictionaryVariables
280
     0
  1
2
  0
DICTIONARYVAR
  5
783
102
{ACAD_REACTORS
330
77F
102
}
330
77F
100
DictionaryVariables
280
     0
  1
1
  0
DICTIONARY
  5
7A6
330
3D
100
AcDbDictionary
280
     1
281
     1
  3
ACAD_XREC_ROUNDTRIP
360
7A7
  0
DICTIONARY
  5
7A4
330
3C
100
AcDbDictionary
280
     1
281
     1
  3
ACAD_XREC_ROUNDTRIP
360
7A5
  0
DICTIONARY
  5
7A8
330
3E
100
AcDbDictionary
280
     1
281
     1
  3
ACAD_XREC_ROUNDTRIP
360
7A9
  0
DICTIONARY
  5
78C
330
2F
100
AcDbDictionary
280
     1
281
     1
  3
ACAD_XREC_ROUNDTRIP
360
78D
  0
DICTIONARY
  5
790
330
31
100
AcDbDictionary
280
     1
281
     1
  3
ACAD_XREC_ROUNDTRIP
360
791
  0
DICTIONARY
  5
78E
330
30
100
AcDbDictionary
280
     1
281
     1
  3
ACAD_XREC_ROUNDTRIP
360
78F
  0
DICTIONARY
  5
792
330
32
100
AcDbDictionary
280
     1
281
     1
  3
ACAD_XREC_ROUNDTRIP
360
793
  0
DICTIONARY
  5
79A
330
36
100
AcDbDictionary
280
     1
281
     1
  3
ACAD_XREC_ROUNDTRIP
360
79B
  0
DICTIONARY
  5
7A2
330
3A
100
AcDbDictionary
280
     1
281
     1
  3
ACAD_XREC_ROUNDTRIP
360
7A3
  0
DICTIONARY
  5
796
330
34
100
AcDbDictionary
280
     1
281
     1
  3
ACAD_XREC_ROUNDTRIP
360
797
  0
DICTIONARY
  5
798
330
35
100
AcDbDictionary
280
     1
281
     1
  3
ACAD_XREC_ROUNDTRIP
360
799
  0
DICTIONARY
  5
7A0
330
39
100
AcDbDictionary
280
     1
281
     1
  3
ACAD_XREC_ROUNDTRIP
360
7A1
  0
DICTIONARY
  5
784
330
2B
100
AcDbDictionary
280
     1
281
     1
  3
ACAD_XREC_ROUNDTRIP
360
785
  0
DICTIONARY
  5
786
330
2C
100
AcDbDictionary
280
     1
281
     1
  3
ACAD_XREC_ROUNDTRIP
360
787
  0
DICTIONARY
  5
788
330
2D
100
AcDbDictionary
280
     1
281
     1
  3
ACAD_XREC_ROUNDTRIP
360
789
  0
DICTIONARY
  5
78A
330
2E
100
AcDbDictionary
280
     1
281
     1
  3
ACAD_XREC_ROUNDTRIP
360
78B
  0
DICTIONARY
  5
79E
330
38
100
AcDbDictionary
280
     1
281
     1
  3
ACAD_XREC_ROUNDTRIP
360
79F
  0
DICTIONARY
  5
794
330
33
100
AcDbDictionary
280
     1
281
     1
  3
ACAD_XREC_ROUNDTRIP
360
795
  0
DICTIONARY
  5
79C
330
37
100
AcDbDictionary
280
     1
281
     1
  3
ACAD_XREC_ROUNDTRIP
360
79D
  0
XRECORD
  5
7A7
102
{ACAD_REACTORS
330
7A6
102
}
330
7A6
100
AcDbXrecord
280
     1
102
MATERIAL
148
0.0
149
0.0
149
0.0
 93
        0
 94
      127
282
     0
 72
     1
 77
     1
171
     1
175
     1
179
     1
273
     0
  0
XRECORD
  5
7A5
102
{ACAD_REACTORS
330
7A4
102
}
330
7A4
100
AcDbXrecord
280
     1
102
MATERIAL
148
0.0
149
0.0
149
0.0
 93
        0
 94
      127
282
     0
 72
     1
 77
     1
171
     1
175
     1
179
     1
273
     0
  0
XRECORD
  5
7A9
102
{ACAD_REACTORS
330
7A8
102
}
330
7A8
100
AcDbXrecord
280
     1
102
MATERIAL
148
0.0
149
0.0
149
0.0
 93
        0
 94
      127
282
     0
 72
     1
 77
     1
171
     1
175
     1
179
     1
273
     0
  0
XRECORD
  5
78D
102
{ACAD_REACTORS
330
78C
102
}
330
78C
100
AcDbXrecord
280
     1
102
RTVSPropertyOp0
 70
     1
102
RTVSPropertyOp1
 70
     1
102
RTVSPropertyOp2
 70
     1
102
RTVSPropertyOp3
 70
     1
102
RTVSPropertyOp4
 70
     1
102
RTVSPropertyOp5
 70
     1
102
RTVSPropertyOp6
 70
     1
102
RTVSPropertyOp7
 70
     1
102
RTVSPropertyOp8
 70
     1
102
RTVSPropertyOp9
 70
     1
102
RTVSPropertyOp10
 70
     1
102
RTVSPropertyOp11
 70
     1
102
RTVSPropertyOp12
 70
     1
102
RTVSPropertyOp13
 70
     1
102
RTVSPropertyOp14
 70
     1
102
RTVSPropertyOp15
 70
     1
102
RTVSPropertyOp16
 70
     1
102
RTVSPropertyOp17
 70
     1
102
RTVSPropertyOp18
 70
     1
102
RTVSPropertyOp19
 70
     1
102
RTVSPropertyOp20
 70
     1
102
RTVSPropertyOp21
 70
     1
102
RTVSPropertyOp22
 70
     1
102
RTVSPropertyOp23
 70
     1
102
RTVSPropertyOp24
 70
     1
102
RTVSPropertyOp25
 70
     1
102
RTVSPropertyOp26
 70
     1
102
RTVSPropertyOp27
 70
     1
102
RTVSPropertyOp28
 70
     1
102
RTVSPropertyOp29
 70
     1
102
RTVSPropertyOp30
 70
     1
102
RTVSPropertyOp31
 70
     1
102
RTVSPropertyOp32
 70
     1
  0
XRECORD
  5
791
102
{ACAD_REACTORS
330
790
102
}
330
790
100
AcDbXrecord
280
     1
102
RTVSPropertyOp0
 70
     1
102
RTVSPropertyOp1
 70
     1
102
RTVSPropertyOp2
 70
     1
102
RTVSPropertyOp3
 70
     1
102
RTVSPropertyOp4
 70
     1
102
RTVSPropertyOp5
 70
     1
102
RTVSPropertyOp6
 70
     1
102
RTVSPropertyOp7
 70
     1
102
RTVSPropertyOp8
 70
     1
102
RTVSPropertyOp9
 70
     1
102
RTVSPropertyOp10
 70
     1
102
RTVSPropertyOp11
 70
     1
102
RTVSPropertyOp12
 70
     1
102
RTVSPropertyOp13
 70
     1
102
RTVSPropertyOp14
 70
     1
102
RTVSPropertyOp15
 70
     1
102
RTVSPropertyOp16
 70
     1
102
RTVSPropertyOp17
 70
     1
102
RTVSPropertyOp18
 70
     1
102
RTVSPropertyOp19
 70
     1
102
RTVSPropertyOp20
 70
     1
102
RTVSPropertyOp21
 70
     1
102
RTVSPropertyOp22
 70
     1
102
RTVSPropertyOp23
 70
     1
102
RTVSPropertyOp24
 70
     1
102
RTVSPropertyOp25
 70
     1
102
RTVSPropertyOp26
 70
     1
102
RTVSPropertyOp27
 70
     1
102
RTVSPropertyOp28
 70
     1
102
RTVSPropertyOp29
 70
     1
102
RTVSPropertyOp30
 70
     1
102
RTVSPropertyOp31
 70
     1
102
RTVSPropertyOp32
 70
     1
  0
XRECORD
  5
78F
102
{ACAD_REACTORS
330
78E
102
}
330
78E
100
AcDbXrecord
280
     1
102
RTVSPropertyOp0
 70
     1
102
RTVSPropertyOp1
 70
     1
102
RTVSPropertyOp2
 70
     1
102
RTVSPropertyOp3
 70
     1
102
RTVSPropertyOp4
 70
     1
102
RTVSPropertyOp5
 70
     1
102
RTVSPropertyOp6
 70
     1
102
RTVSPropertyOp7
 70
     1
102
RTVSPropertyOp8
 70
     1
102
RTVSPropertyOp9
 70
     1
102
RTVSPropertyOp10
 70
     1
102
RTVSPropertyOp11
 70
     1
102
RTVSPropertyOp12
 70
     1
102
RTVSPropertyOp13
 70
     1
102
RTVSPropertyOp14
 70
     1
102
RTVSPropertyOp15
 70
     1
102
RTVSPropertyOp16
 70
     1
102
RTVSPropertyOp17
 70
     1
102
RTVSPropertyOp18
 70
     1
102
RTVSPropertyOp19
 70
     1
102
RTVSPropertyOp20
 70
     1
102
RTVSPropertyOp21
 70
     1
102
RTVSPropertyOp22
 70
     1
102
RTVSPropertyOp23
 70
     1
102
RTVSPropertyOp24
 70
     1
102
RTVSPropertyOp25
 70
     1
102
RTVSPropertyOp26
 70
     1
102
RTVSPropertyOp27
 70
     1
102
RTVSPropertyOp28
 70
     1
102
RTVSPropertyOp29
 70
     1
102
RTVSPropertyOp30
 70
     1
102
RTVSPropertyOp31
 70
     1
102
RTVSPropertyOp32
 70
     1
  0
XRECORD
  5
793
102
{ACAD_REACTORS
330
792
102
}
330
792
100
AcDbXrecord
280
     1
102
RTVSPropertyOp0
 70
     1
102
RTVSPropertyOp1
 70
     1
102
RTVSPropertyOp2
 70
     1
102
RTVSPropertyOp3
 70
     1
102
RTVSPropertyOp4
 70
     1
102
RTVSPropertyOp5
 70
     1
102
RTVSPropertyOp6
 70
     1
102
RTVSPropertyOp7
 70
     1
102
RTVSPropertyOp8
 70
     1
102
RTVSPropertyOp9
 70
     1
102
RTVSPropertyOp10
 70
     1
102
RTVSPropertyOp11
 70
     1
102
RTVSPropertyOp12
 70
     1
102
RTVSPropertyOp13
 70
     1
102
RTVSPropertyOp14
 70
     1
102
RTVSPropertyOp15
 70
     1
102
RTVSPropertyOp16
 70
     1
102
RTVSPropertyOp17
 70
     1
102
RTVSPropertyOp18
 70
     1
102
RTVSPropertyOp19
 70
     1
102
RTVSPropertyOp20
 70
     1
102
RTVSPropertyOp21
 70
     1
102
RTVSPropertyOp22
 70
     1
102
RTVSPropertyOp23
 70
     1
102
RTVSPropertyOp24
 70
     1
102
RTVSPropertyOp25
 70
     1
102
RTVSPropertyOp26
 70
     1
102
RTVSPropertyOp27
 70
     1
102
RTVSPropertyOp28
 70
     1
102
RTVSPropertyOp29
 70
     1
102
RTVSPropertyOp30
 70
     1
102
RTVSPropertyOp31
 70
     1
102
RTVSPropertyOp32
 70
     1
  0
XRECORD
  5
79B
102
{ACAD_REACTORS
330
79A
102
}
330
79A
100
AcDbXrecord
280
     1
102
RTVSPropertyOp0
 70
     1
102
RTVSPropertyOp1
 70
     1
102
RTVSPropertyOp2
 70
     1
102
RTVSPropertyOp3
 70
     1
102
RTVSPropertyOp4
 70
     1
102
RTVSPropertyOp5
 70
     1
102
RTVSPropertyOp6
 70
     1
102
RTVSPropertyOp7
 70
     1
102
RTVSPropertyOp8
 70
     1
102
RTVSPropertyOp9
 70
     1
102
RTVSPropertyOp10
 70
     1
102
RTVSPropertyOp11
 70
     1
102
RTVSPropertyOp12
 70
     1
102
RTVSPropertyOp13
 70
     1
102
RTVSPropertyOp14
 70
     1
102
RTVSPropertyOp15
 70
     1
102
RTVSPropertyOp16
 70
     1
102
RTVSPropertyOp17
 70
     1
102
RTVSPropertyOp18
 70
     1
102
RTVSPropertyOp19
 70
     1
102
RTVSPropertyOp20
 70
     1
102
RTVSPropertyOp21
 70
     1
102
RTVSPropertyOp22
 70
     1
102
RTVSPropertyOp23
 70
     1
102
RTVSPropertyOp24
 70
     1
102
RTVSPropertyOp25
 70
     1
102
RTVSPropertyOp26
 70
     1
102
RTVSPropertyOp27
 70
     1
102
RTVSPropertyOp28
 70
     1
102
RTVSPropertyOp29
 70
     1
102
RTVSPropertyOp30
 70
     1
102
RTVSPropertyOp31
 70
     1
102
RTVSPropertyOp32
 70
     1
  0
XRECORD
  5
7A3
102
{ACAD_REACTORS
330
7A2
102
}
330
7A2
100
AcDbXrecord
280
     1
102
RTVSPropertyOp0
 70
     1
102
RTVSPropertyOp1
 70
     1
102
RTVSPropertyOp2
 70
     1
102
RTVSPropertyOp3
 70
     1
102
RTVSPropertyOp4
 70
     1
102
RTVSPropertyOp5
 70
     1
102
RTVSPropertyOp6
 70
     1
102
RTVSPropertyOp7
 70
     1
102
RTVSPropertyOp8
 70
     1
102
RTVSPropertyOp9
 70
     1
102
RTVSPropertyOp10
 70
     1
102
RTVSPropertyOp11
 70
     1
102
RTVSPropertyOp12
 70
     1
102
RTVSPropertyOp13
 70
     1
102
RTVSPropertyOp14
 70
     1
102
RTVSPropertyOp15
 70
     1
102
RTVSPropertyOp16
 70
     1
102
RTVSPropertyOp17
 70
     1
102
RTVSPropertyOp18
 70
     1
102
RTVSPropertyOp19
 70
     1
102
RTVSPropertyOp20
 70
     1
102
RTVSPropertyOp21
 70
     1
102
RTVSPropertyOp22
 70
     1
102
RTVSPropertyOp23
 70
     1
102
RTVSPropertyOp24
 70
     1
102
RTVSPropertyOp25
 70
     1
102
RTVSPropertyOp26
 70
     1
102
RTVSPropertyOp27
 70
     1
102
RTVSPropertyOp28
 70
     1
102
RTVSPropertyOp29
 70
     1
102
RTVSPropertyOp30
 70
     1
102
RTVSPropertyOp31
 70
     1
102
RTVSPropertyOp32
 70
     1
  0
XRECORD
  5
797
102
{ACAD_REACTORS
330
796
102
}
330
796
100
AcDbXrecord
280
     1
102
RTVSPropertyOp0
 70
     1
102
RTVSPropertyOp1
 70
     1
102
RTVSPropertyOp2
 70
     1
102
RTVSPropertyOp3
 70
     1
102
RTVSPropertyOp4
 70
     1
102
RTVSPropertyOp5
 70
     1
102
RTVSPropertyOp6
 70
     1
102
RTVSPropertyOp7
 70
     1
102
RTVSPropertyOp8
 70
     1
102
RTVSPropertyOp9
 70
     1
102
RTVSPropertyOp10
 70
     1
102
RTVSPropertyOp11
 70
     1
102
RTVSPropertyOp12
 70
     1
102
RTVSPropertyOp13
 70
     1
102
RTVSPropertyOp14
 70
     1
102
RTVSPropertyOp15
 70
     1
102
RTVSPropertyOp16
 70
     1
102
RTVSPropertyOp17
 70
     1
102
RTVSPropertyOp18
 70
     1
102
RTVSPropertyOp19
 70
     1
102
RTVSPropertyOp20
 70
     1
102
RTVSPropertyOp21
 70
     1
102
RTVSPropertyOp22
 70
     1
102
RTVSPropertyOp23
 70
     1
102
RTVSPropertyOp24
 70
     1
102
RTVSPropertyOp25
 70
     1
102
RTVSPropertyOp26
 70
     1
102
RTVSPropertyOp27
 70
     1
102
RTVSPropertyOp28
 70
     1
102
RTVSPropertyOp29
 70
     1
102
RTVSPropertyOp30
 70
     1
102
RTVSPropertyOp31
 70
     1
102
RTVSPropertyOp32
 70
     1
  0
XRECORD
  5
799
102
{ACAD_REACTORS
330
798
102
}
330
798
100
AcDbXrecord
280
     1
102
RTVSPropertyOp0
 70
     1
102
RTVSPropertyOp1
 70
     1
102
RTVSPropertyOp2
 70
     1
102
RTVSPropertyOp3
 70
     1
102
RTVSPropertyOp4
 70
     1
102
RTVSPropertyOp5
 70
     1
102
RTVSPropertyOp6
 70
     1
102
RTVSPropertyOp7
 70
     1
102
RTVSPropertyOp8
 70
     1
102
RTVSPropertyOp9
 70
     1
102
RTVSPropertyOp10
 70
     1
102
RTVSPropertyOp11
 70
     1
102
RTVSPropertyOp12
 70
     1
102
RTVSPropertyOp13
 70
     1
102
RTVSPropertyOp14
 70
     1
102
RTVSPropertyOp15
 70
     1
102
RTVSPropertyOp16
 70
     1
102
RTVSPropertyOp17
 70
     1
102
RTVSPropertyOp18
 70
     1
102
RTVSPropertyOp19
 70
     1
102
RTVSPropertyOp20
 70
     1
102
RTVSPropertyOp21
 70
     1
102
RTVSPropertyOp22
 70
     1
102
RTVSPropertyOp23
 70
     1
102
RTVSPropertyOp24
 70
     1
102
RTVSPropertyOp25
 70
     1
102
RTVSPropertyOp26
 70
     1
102
RTVSPropertyOp27
 70
     1
102
RTVSPropertyOp28
 70
     1
102
RTVSPropertyOp29
 70
     1
102
RTVSPropertyOp30
 70
     1
102
RTVSPropertyOp31
 70
     1
102
RTVSPropertyOp32
 70
     1
  0
XRECORD
  5
7A1
102
{ACAD_REACTORS
330
7A0
102
}
330
7A0
100
AcDbXrecord
280
     1
102
RTVSPropertyOp0
 70
     1
102
RTVSPropertyOp1
 70
     1
102
RTVSPropertyOp2
 70
     1
102
RTVSPropertyOp3
 70
     1
102
RTVSPropertyOp4
 70
     1
102
RTVSPropertyOp5
 70
     1
102
RTVSPropertyOp6
 70
     1
102
RTVSPropertyOp7
 70
     1
102
RTVSPropertyOp8
 70
     1
102
RTVSPropertyOp9
 70
     1
102
RTVSPropertyOp10
 70
     1
102
RTVSPropertyOp11
 70
     1
102
RTVSPropertyOp12
 70
     1
102
RTVSPropertyOp13
 70
     1
102
RTVSPropertyOp14
 70
     1
102
RTVSPropertyOp15
 70
     1
102
RTVSPropertyOp16
 70
     1
102
RTVSPropertyOp17
 70
     1
102
RTVSPropertyOp18
 70
     1
102
RTVSPropertyOp19
 70
     1
102
RTVSPropertyOp20
 70
     1
102
RTVSPropertyOp21
 70
     1
102
RTVSPropertyOp22
 70
     1
102
RTVSPropertyOp23
 70
     1
102
RTVSPropertyOp24
 70
     1
102
RTVSPropertyOp25
 70
     1
102
RTVSPropertyOp26
 70
     1
102
RTVSPropertyOp27
 70
     1
102
RTVSPropertyOp28
 70
     1
102
RTVSPropertyOp29
 70
     1
102
RTVSPropertyOp30
 70
     1
102
RTVSPropertyOp31
 70
     1
102
RTVSPropertyOp32
 70
     1
  0
XRECORD
  5
785
102
{ACAD_REACTORS
330
784
102
}
330
784
100
AcDbXrecord
280
     1
102
RTVSPropertyOp0
 70
     1
102
RTVSPropertyOp1
 70
     1
102
RTVSPropertyOp2
 70
     1
102
RTVSPropertyOp3
 70
     1
102
RTVSPropertyOp4
 70
     1
102
RTVSPropertyOp5
 70
     1
102
RTVSPropertyOp6
 70
     1
102
RTVSPropertyOp7
 70
     1
102
RTVSPropertyOp8
 70
     1
102
RTVSPropertyOp9
 70
     1
102
RTVSPropertyOp10
 70
     1
102
RTVSPropertyOp11
 70
     1
102
RTVSPropertyOp12
 70
     1
102
RTVSPropertyOp13
 70
     1
102
RTVSPropertyOp14
 70
     1
102
RTVSPropertyOp15
 70
     1
102
RTVSPropertyOp16
 70
     1
102
RTVSPropertyOp17
 70
     1
102
RTVSPropertyOp18
 70
     1
102
RTVSPropertyOp19
 70
     1
102
RTVSPropertyOp20
 70
     1
102
RTVSPropertyOp21
 70
     1
102
RTVSPropertyOp22
 70
     1
102
RTVSPropertyOp23
 70
     1
102
RTVSPropertyOp24
 70
     1
102
RTVSPropertyOp25
 70
     1
102
RTVSPropertyOp26
 70
     1
102
RTVSPropertyOp27
 70
     1
102
RTVSPropertyOp28
 70
     1
102
RTVSPropertyOp29
 70
     1
102
RTVSPropertyOp30
 70
     1
102
RTVSPropertyOp31
 70
     1
102
RTVSPropertyOp32
 70
     1
  0
XRECORD
  5
787
102
{ACAD_REACTORS
330
786
102
}
330
786
100
AcDbXrecord
280
     1
102
RTVSPropertyOp0
 70
     1
102
RTVSPropertyOp1
 70
     1
102
RTVSPropertyOp2
 70
     1
102
RTVSPropertyOp3
 70
     1
102
RTVSPropertyOp4
 70
     1
102
RTVSPropertyOp5
 70
     1
102
RTVSPropertyOp6
 70
     1
102
RTVSPropertyOp7
 70
     1
102
RTVSPropertyOp8
 70
     1
102
RTVSPropertyOp9
 70
     1
102
RTVSPropertyOp10
 70
     1
102
RTVSPropertyOp11
 70
     1
102
RTVSPropertyOp12
 70
     1
102
RTVSPropertyOp13
 70
     1
102
RTVSPropertyOp14
 70
     1
102
RTVSPropertyOp15
 70
     1
102
RTVSPropertyOp16
 70
     1
102
RTVSPropertyOp17
 70
     1
102
RTVSPropertyOp18
 70
     1
102
RTVSPropertyOp19
 70
     1
102
RTVSPropertyOp20
 70
     1
102
RTVSPropertyOp21
 70
     1
102
RTVSPropertyOp22
 70
     1
102
RTVSPropertyOp23
 70
     1
102
RTVSPropertyOp24
 70
     1
102
RTVSPropertyOp25
 70
     1
102
RTVSPropertyOp26
 70
     1
102
RTVSPropertyOp27
 70
     1
102
RTVSPropertyOp28
 70
     1
102
RTVSPropertyOp29
 70
     1
102
RTVSPropertyOp30
 70
     1
102
RTVSPropertyOp31
 70
     1
102
RTVSPropertyOp32
 70
     1
  0
XRECORD
  5
789
102
{ACAD_REACTORS
330
788
102
}
330
788
100
AcDbXrecord
280
     1
102
RTVSPropertyOp0
 70
     1
102
RTVSPropertyOp1
 70
     1
102
RTVSPropertyOp2
 70
     1
102
RTVSPropertyOp3
 70
     1
102
RTVSPropertyOp4
 70
     1
102
RTVSPropertyOp5
 70
     1
102
RTVSPropertyOp6
 70
     1
102
RTVSPropertyOp7
 70
     1
102
RTVSPropertyOp8
 70
     1
102
RTVSPropertyOp9
 70
     1
102
RTVSPropertyOp10
 70
     1
102
RTVSPropertyOp11
 70
     1
102
RTVSPropertyOp12
 70
     1
102
RTVSPropertyOp13
 70
     1
102
RTVSPropertyOp14
 70
     1
102
RTVSPropertyOp15
 70
     1
102
RTVSPropertyOp16
 70
     1
102
RTVSPropertyOp17
 70
     1
102
RTVSPropertyOp18
 70
     1
102
RTVSPropertyOp19
 70
     1
102
RTVSPropertyOp20
 70
     1
102
RTVSPropertyOp21
 70
     1
102
RTVSPropertyOp22
 70
     1
102
RTVSPropertyOp23
 70
     1
102
RTVSPropertyOp24
 70
     1
102
RTVSPropertyOp25
 70
     1
102
RTVSPropertyOp26
 70
     1
102
RTVSPropertyOp27
 70
     1
102
RTVSPropertyOp28
 70
     1
102
RTVSPropertyOp29
 70
     1
102
RTVSPropertyOp30
 70
     1
102
RTVSPropertyOp31
 70
     1
102
RTVSPropertyOp32
 70
     1
  0
XRECORD
  5
78B
102
{ACAD_REACTORS
330
78A
102
}
330
78A
100
AcDbXrecord
280
     1
102
RTVSPropertyOp0
 70
     1
102
RTVSPropertyOp1
 70
     1
102
RTVSPropertyOp2
 70
     1
102
RTVSPropertyOp3
 70
     1
102
RTVSPropertyOp4
 70
     1
102
RTVSPropertyOp5
 70
     1
102
RTVSPropertyOp6
 70
     1
102
RTVSPropertyOp7
 70
     1
102
RTVSPropertyOp8
 70
     1
102
RTVSPropertyOp9
 70
     1
102
RTVSPropertyOp10
 70
     1
102
RTVSPropertyOp11
 70
     1
102
RTVSPropertyOp12
 70
     1
102
RTVSPropertyOp13
 70
     1
102
RTVSPropertyOp14
 70
     1
102
RTVSPropertyOp15
 70
     1
102
RTVSPropertyOp16
 70
     1
102
RTVSPropertyOp17
 70
     1
102
RTVSPropertyOp18
 70
     1
102
RTVSPropertyOp19
 70
     1
102
RTVSPropertyOp20
 70
     1
102
RTVSPropertyOp21
 70
     1
102
RTVSPropertyOp22
 70
     1
102
RTVSPropertyOp23
 70
     1
102
RTVSPropertyOp24
 70
     1
102
RTVSPropertyOp25
 70
     1
102
RTVSPropertyOp26
 70
     1
102
RTVSPropertyOp27
 70
     1
102
RTVSPropertyOp28
 70
     1
102
RTVSPropertyOp29
 70
     1
102
RTVSPropertyOp30
 70
     1
102
RTVSPropertyOp31
 70
     1
102
RTVSPropertyOp32
 70
     1
  0
XRECORD
  5
79F
102
{ACAD_REACTORS
330
79E
102
}
330
79E
100
AcDbXrecord
280
     1
102
RTVSPropertyOp0
 70
     1
102
RTVSPropertyOp1
 70
     1
102
RTVSPropertyOp2
 70
     1
102
RTVSPropertyOp3
 70
     1
102
RTVSPropertyOp4
 70
     1
102
RTVSPropertyOp5
 70
     1
102
RTVSPropertyOp6
 70
     1
102
RTVSPropertyOp7
 70
     1
102
RTVSPropertyOp8
 70
     1
102
RTVSPropertyOp9
 70
     1
102
RTVSPropertyOp10
 70
     1
102
RTVSPropertyOp11
 70
     1
102
RTVSPropertyOp12
 70
     1
102
RTVSPropertyOp13
 70
     1
102
RTVSPropertyOp14
 70
     1
102
RTVSPropertyOp15
 70
     1
102
RTVSPropertyOp16
 70
     1
102
RTVSPropertyOp17
 70
     1
102
RTVSPropertyOp18
 70
     1
102
RTVSPropertyOp19
 70
     1
102
RTVSPropertyOp20
 70
     1
102
RTVSPropertyOp21
 70
     1
102
RTVSPropertyOp22
 70
     1
102
RTVSPropertyOp23
 70
     1
102
RTVSPropertyOp24
 70
     1
102
RTVSPropertyOp25
 70
     1
102
RTVSPropertyOp26
 70
     1
102
RTVSPropertyOp27
 70
     1
102
RTVSPropertyOp28
 70
     1
102
RTVSPropertyOp29
 70
     1
102
RTVSPropertyOp30
 70
     1
102
RTVSPropertyOp31
 70
     1
102
RTVSPropertyOp32
 70
     1
  0
XRECORD
  5
795
102
{ACAD_REACTORS
330
794
102
}
330
794
100
AcDbXrecord
280
     1
102
RTVSPropertyOp0
 70
     1
102
RTVSPropertyOp1
 70
     1
102
RTVSPropertyOp2
 70
     1
102
RTVSPropertyOp3
 70
     1
102
RTVSPropertyOp4
 70
     1
102
RTVSPropertyOp5
 70
     1
102
RTVSPropertyOp6
 70
     1
102
RTVSPropertyOp7
 70
     1
102
RTVSPropertyOp8
 70
     1
102
RTVSPropertyOp9
 70
     1
102
RTVSPropertyOp10
 70
     1
102
RTVSPropertyOp11
 70
     1
102
RTVSPropertyOp12
 70
     1
102
RTVSPropertyOp13
 70
     1
102
RTVSPropertyOp14
 70
     1
102
RTVSPropertyOp15
 70
     1
102
RTVSPropertyOp16
 70
     1
102
RTVSPropertyOp17
 70
     1
102
RTVSPropertyOp18
 70
     1
102
RTVSPropertyOp19
 70
     1
102
RTVSPropertyOp20
 70
     1
102
RTVSPropertyOp21
 70
     1
102
RTVSPropertyOp22
 70
     1
102
RTVSPropertyOp23
 70
     1
102
RTVSPropertyOp24
 70
     1
102
RTVSPropertyOp25
 70
     1
102
RTVSPropertyOp26
 70
     1
102
RTVSPropertyOp27
 70
     1
102
RTVSPropertyOp28
 70
     1
102
RTVSPropertyOp29
 70
     1
102
RTVSPropertyOp30
 70
     1
102
RTVSPropertyOp31
 70
     1
102
RTVSPropertyOp32
 70
     1
  0
XRECORD
  5
79D
102
{ACAD_REACTORS
330
79C
102
}
330
79C
100
AcDbXrecord
280
     1
102
RTVSPropertyOp0
 70
     1
102
RTVSPropertyOp1
 70
     1
102
RTVSPropertyOp2
 70
     1
102
RTVSPropertyOp3
 70
     1
102
RTVSPropertyOp4
 70
     1
102
RTVSPropertyOp5
 70
     1
102
RTVSPropertyOp6
 70
     1
102
RTVSPropertyOp7
 70
     1
102
RTVSPropertyOp8
 70
     1
102
RTVSPropertyOp9
 70
     1
102
RTVSPropertyOp10
 70
     1
102
RTVSPropertyOp11
 70
     1
102
RTVSPropertyOp12
 70
     1
102
RTVSPropertyOp13
 70
     1
102
RTVSPropertyOp14
 70
     1
102
RTVSPropertyOp15
 70
     1
102
RTVSPropertyOp16
 70
     1
102
RTVSPropertyOp17
 70
     1
102
RTVSPropertyOp18
 70
     1
102
RTVSPropertyOp19
 70
     1
102
RTVSPropertyOp20
 70
     1
102
RTVSPropertyOp21
 70
     1
102
RTVSPropertyOp22
 70
     1
102
RTVSPropertyOp23
 70
     1
102
RTVSPropertyOp24
 70
     1
102
RTVSPropertyOp25
 70
     1
102
RTVSPropertyOp26
 70
     1
102
RTVSPropertyOp27
 70
     1
102
RTVSPropertyOp28
 70
     1
102
RTVSPropertyOp29
 70
     1
102
RTVSPropertyOp30
 70
     1
102
RTVSPropertyOp31
 70
     1
102
RTVSPropertyOp32
 70
     1
  0
ENDSEC
  0
EOF
